<?xml version="1.0" standalone="no"?> <!DOCTYPE svg PUBLIC "-//W3C//DTD SVG 1.0//EN" "http://www.w3.org/TR/2001/REC-SVG-20010904/DTD/svg10.dtd" > <svg xmlns="http://www.w3.org/2000/svg" width="100%" height="100%">
<defs >
<font horiz-adv-x="568" ><font-face
    font-family=""
    units-per-em="1000"
    panose-1="2 0 6 3 8 0 0 9 0 4"
    ascent="760"
    descent="-240"
    alphabetic="0" />
<missing-glyph horiz-adv-x="156" />
<glyph unicode=" " glyph-name="space" horiz-adv-x="156" />
<glyph unicode="!" glyph-name="exclam" horiz-adv-x="297" d="M302 703L145 198H118L158 703H302ZM111 -11Q80 -11 58 10T36 63Q36 94 58 116T111 138Q142 138 164 116T186 63Q186 32 164 11T111 -11Z" />
<glyph unicode="&quot;" glyph-name="quotedbl" horiz-adv-x="401" d="M128 722H253L151 464H131L128 722ZM314 722H439L337 464H317L314 722Z" />
<glyph unicode="#" glyph-name="numbersign" horiz-adv-x="593" d="M124 439H244L302 594H343L285 439H434L492 594H533L475 439H595L586 398H459L388 207H504L495 167H373L311 0H270L332 167H183L121 0H80L142 167H25L34 207H157L229 398H116L124 439ZM198 207H347L419
398H269L198 207Z" />
<glyph unicode="$" glyph-name="dollar" horiz-adv-x="539" d="M79 218L93 66Q109 55 135 42T193 24L252 266L221 280Q161 306 129 344T98 442Q99 481 117 516T167 579T245 624T344 645L370 751H405L379 645Q425 643 461 633T525 614L487 440H459L443 578Q426
588 408 595T370 607L314 381L341 370Q382 353 410 335T456 296T481 250T489 193Q488 145 463 107T399 42T312 0T217 -18L191 -125H157L183 -17Q132 -13 88 1T17 25L53 218H79ZM366 143Q367 176 348 202T283 252L227 22Q287 24 325 54T366 143ZM209 498Q208 466
224 442T283 396L335 608Q275 605 243 574T209 498Z" />
<glyph unicode="%" glyph-name="percent" horiz-adv-x="824" d="M249 580Q229 580 211 563T179 517T157 452T148 378Q148 340 158 318T192 296Q210 296 228 313T261 358T285 423T294 497Q294 535 283 557T249 580ZM147 -50H103L665 630H711L147 -50ZM191 269Q159
269 134 280T92 309T65 354T55 410Q55 448 69 483T110 546T173 590T251 607Q281 607 306 597T348 567T376 523T386 467Q386 429 372 394T331 330T270 286T191 269ZM626 295Q607 295 589 278T557 232T534 167T525 93Q525 55 535 33T569 10Q587 10 605 27T638 73T662
137T671 211Q671 249 660 272T626 295ZM568 -17Q536 -17 511 -6T469 24T442 68T432 124Q432 163 446 198T487 261T550 305T628 322Q658 322 683 311T725 282T753 237T763 181Q763 143 749 108T708 45T647 0T568 -17Z" />
<glyph unicode="&amp;" glyph-name="ampersand" horiz-adv-x="901" d="M629 428Q602 445 579 458T528 472Q502 472 488 456T473 421Q473 392 493 373T535 339Q521 316 504 302T469 287Q464 287 457 289T441 297T428 318T422 356Q422 385 435 421T473 488T530 540T602
561Q638 561 662 548T714 516Q748 494 770 480T805 458T827 447T844 444Q861 444 869 457T878 489Q877 514 868 541T843 595Q855 603 866 607T891 611Q940 609 940 560Q940 525 925 489T885 424T831 377T773 359Q744 359 723 369T676 397Q664 298 635 219T559 83T451
-3T313 -33Q257 -33 210 -16T127 33T71 113T51 223Q51 288 73 346T131 449T208 520T291 546Q314 546 329 536T355 507L500 714L538 686L144 194Q170 145 221 117T343 88Q403 88 452 111T540 178T606 281T648 415L629 428ZM119 300Q119 280 121 262T130 227L277
413Q279 423 277 433T268 453T252 467T227 473Q208 473 189 462T155 428T129 374T119 300Z" />
<glyph unicode="&apos;" glyph-name="quotesingle" horiz-adv-x="215" d="M128 722H253L151 464H131L128 722Z" />
<glyph unicode="(" glyph-name="parenleft" horiz-adv-x="333" d="M201 -180Q168 -139 142 -92T98 10T75 123T78 249Q85 316 110 382T175 510T265 628T375 732H417Q364 678 321 622T245 503T191 372T162 225Q153 164 153 111T163 9T191 -86T237 -180H201Z" />
<glyph unicode=")" glyph-name="parenright" horiz-adv-x="333" d="M126 732Q160 690 186 643T230 542T252 429T249 303Q242 236 217 170T151 41T60 -77T-49 -180H-90Q-37 -126 6 -70T82 49T136 180T165 327Q174 388 174 441T164 543T136 638T90 732H126Z" />
<glyph unicode="*" glyph-name="asterisk" horiz-adv-x="383" d="M296 507L300 375L285 372L231 491L107 445L100 458L198 547L117 650L125 659L240 598L313 705L324 701L300 572L425 539L424 524L296 507Z" />
<glyph unicode="+" glyph-name="plus" horiz-adv-x="562" d="M297 221V6H251V221H37V264H251V479H297V264H511V221H297Z" />
<glyph unicode="," glyph-name="comma" horiz-adv-x="283" d="M-41 -143Q19 -114 55 -82T92 -8Q92 21 73 37T24 57Q18 94 38 120T97 146Q130 146 157 120T185 46Q185 -15 134 -72T-31 -168L-41 -143Z" />
<glyph unicode="-" glyph-name="hyphen" horiz-adv-x="364" d="M71 314H321L307 240H56L71 314Z" />
<glyph unicode="." glyph-name="period" horiz-adv-x="257" d="M85 -11Q54 -11 32 10T10 63Q10 94 32 116T85 138Q117 138 138 116T160 63Q160 32 139 11T85 -11Z" />
<glyph unicode="/" glyph-name="slash" horiz-adv-x="415" d="M-100 -188L424 748L459 729L-66 -206L-100 -188Z" />
<glyph unicode="0" glyph-name="zero" horiz-adv-x="613" d="M350 493Q318 493 287 465T230 390T190 284T174 162Q174 130 178 103T193 56T221 25T264 13Q295 13 326 41T382 115T422 220T438 342Q438 414 416 453T350 493ZM259 -17Q209 -17 168 -1T98 46T52 119T35
216Q35 278 59 334T127 432T228 498T353 523Q404 523 445 505T516 457T561 384T577 294Q577 234 555 178T491 79T390 9T259 -17Z" />
<glyph unicode="1" glyph-name="one" horiz-adv-x="402" d="M239 46L338 27L333 0H-5L0 27L111 46L187 434L59 429L64 459L329 521H333L239 46Z" />
<glyph unicode="2" glyph-name="two" horiz-adv-x="468" d="M138 102H419L391 0H3L10 37L102 114Q160 163 197 198T256 260T286 308T295 351Q295 388 271 411T212 434Q180 434 151 419T90 370L71 384Q83 409 100 434T141 480T194 513T260 526Q296 526 324 515T373
486T403 442T414 386Q414 353 403 326T370 272T312 218T227 159L138 102Z" />
<glyph unicode="3" glyph-name="three" horiz-adv-x="414" d="M-51 -204Q0 -186 46 -162T128 -107T185 -42T206 35Q206 85 171 112T74 140H62L68 184L113 206Q141 219 167 234T212 268T243 309T255 358Q255 393 233 414T177 436Q151 436 124 424T63 378L44 392Q85
463 129 494T232 526Q263 526 288 517T332 490T361 450T371 399Q371 345 335 304T232 231L181 206Q248 197 291 161T334 61Q334 10 308 -33T233 -111T115 -176T-43 -229L-51 -204Z" />
<glyph unicode="4" glyph-name="four" horiz-adv-x="598" d="M289 20H-6L1 67L470 519H506L425 111H552L535 20H407L365 -193H247L289 20ZM307 111L357 363L92 111H307Z" />
<glyph unicode="5" glyph-name="five" horiz-adv-x="400" d="M188 58Q188 84 182 109T161 162T120 217T55 279L146 502L392 516L371 402L131 391L125 378Q179 341 216 307T276 240T309 172T319 101Q319 38 291 -13T214 -105T99 -176T-42 -228L-51 -203Q-8 -185
35 -161T112 -105T167 -33T188 58Z" />
<glyph unicode="6" glyph-name="six" horiz-adv-x="575" d="M620 689Q563 666 506 634T397 562T301 474T226 369H229Q257 402 291 417T363 432Q398 432 429 420T484 383T521 324T535 244Q535 196 516 149T461 65T373 4T254 -20Q203 -20 163 -3T96 43T54 113T39
201Q39 272 64 334T134 448T235 544T356 620T486 676T613 713L620 689ZM308 383Q278 383 254 368T209 328Q192 289 183 246T174 156Q174 80 194 45T256 10Q286 10 311 31T355 87T384 164T395 249Q395 276 390 300T374 342T347 372T308 383Z" />
<glyph unicode="7" glyph-name="seven" horiz-adv-x="490" d="M-12 -176L385 388H56L80 509H501V502L129 -67L41 -209L-12 -176Z" />
<glyph unicode="8" glyph-name="eight" horiz-adv-x="528" d="M20 129Q20 169 37 200T82 256T143 297T209 328L197 340Q155 380 138 414T120 491Q120 527 136 561T181 622T252 665T345 681Q391 681 425 671T483 643T518 601T530 549Q530 516 515 489T476 440T421
398T359 363L379 345Q421 305 447 266T474 174Q474 132 453 96T396 35T317 -5T228 -20Q184 -20 146 -12T80 15T36 62T20 129ZM227 310Q185 279 162 237T139 141Q139 114 146 91T166 51T198 25T244 15Q264 15 283 22T318 42T342 76T352 122Q352 142 348 159T334
193T308 229T267 272L227 310ZM238 542Q238 505 253 477T302 417L339 382Q376 419 398 458T421 545Q421 587 399 618T334 650Q294 650 266 622T238 542Z" />
<glyph unicode="9" glyph-name="nine" horiz-adv-x="577" d="M-51 -181Q15 -153 75 -119T187 -46T280 39T350 138H346Q323 111 293 92T215 73Q181 73 150 85T94 122T56 184T41 271Q41 316 60 361T116 442T206 502T328 525Q374 525 412 510T479 466T522 398T538
310Q538 240 514 179T448 66T350 -29T229 -106T95 -165T-44 -205L-51 -181ZM268 118Q297 118 321 134T366 174Q403 259 403 356Q403 422 385 459T324 496Q293 496 267 475T221 420T192 345T181 261Q181 199 203 159T268 118Z" />
<glyph unicode=":" glyph-name="colon" horiz-adv-x="257" d="M85 -11Q54 -11 32 10T10 63Q10 94 32 116T85 138Q116 138 138 116T160 63Q160 32 138 11T85 -11ZM153 335Q122 335 101 356T79 409Q79 440 100 462T153 484Q185 484 207 462T229 409Q229 378 207
357T153 335Z" />
<glyph unicode=";" glyph-name="semicolon" horiz-adv-x="279" d="M165 335Q134 335 113 356T91 409Q91 440 112 462T165 484Q197 484 219 462T241 409Q241 378 219 357T165 335ZM-42 -143Q18 -114 54 -82T91 -8Q91 21 72 37T23 57Q17 94 37 120T96 146Q129 146
156 120T184 46Q184 -15 133 -72T-32 -168L-42 -143Z" />
<glyph unicode="&lt;" glyph-name="less" horiz-adv-x="569" d="M107 241L520 51V3L48 225V259L520 480V433L107 241Z" />
<glyph unicode="=" glyph-name="equal" horiz-adv-x="562" d="M45 298V340H519V298H45ZM45 157V199H519V157H45Z" />
<glyph unicode="&gt;" glyph-name="greater" horiz-adv-x="569" d="M462 241L48 432V480L521 258V224L48 3V50L462 241Z" />
<glyph unicode="?" glyph-name="question" horiz-adv-x="408" d="M153 702L199 688Q237 676 272 654T335 602T379 533T396 450Q396 376 358 339T254 289L143 268L118 198H88L115 371L274 394Q316 400 336 413T356 452Q356 474 341 492T299 523T237 547T162 563L129
568L153 702ZM79 -11Q48 -11 26 10T4 63Q4 94 26 116T79 138Q111 138 132 116T154 63Q154 32 133 11T79 -11Z" />
<glyph unicode="@" glyph-name="at" horiz-adv-x="941" d="M514 192H511L484 151Q468 127 449 104T409 63T366 34T321 22Q283 22 263 47T242 110Q242 152 255 194T291 276T344 350T407 409T476 448T543 463Q558 463 574 458T605 445L617 479H700L612 169Q595 107
607 83T652 59Q677 59 708 76T768 127T815 213T834 333Q834 394 813 447T752 539T659 601T539 624Q464 624 391 593T259 503T164 363T127 178Q127 103 152 44T221 -55T326 -116T456 -137Q511 -137 552 -127T611 -109V-127Q605 -131 586 -138T541 -154T483 -168T421
-174Q335 -174 265 -152T145 -88T68 15T40 154Q40 262 87 354T211 515T382 621T573 660Q651 660 712 636T816 571T881 474T904 354Q904 282 877 221T806 114T708 44T599 19Q539 19 511 54T503 155L514 192ZM388 103Q404 103 428 125T476 182T521 257T554 334L575
400Q564 414 551 423T524 432Q496 432 467 404T414 334T375 240T360 141Q360 103 388 103Z" />
<glyph unicode="A" glyph-name="A" horiz-adv-x="702" d="M-37 28L30 47L393 668L430 675L478 683L572 50L636 27L630 0H348L353 28L437 49L413 224H187L91 51L189 27L184 0H-43L-37 28ZM215 275H406L369 549H368L215 275Z" />
<glyph unicode="B" glyph-name="B" horiz-adv-x="624" d="M-27 0L-21 28L55 49L169 614L98 637L103 664L330 665Q402 666 451 655T530 623T572 577T585 521Q585 484 567 455T519 405T448 371T365 352V348Q410 345 448 333T513 301T556 254T572 194Q572 145 549
108T483 46T377 9T237 -2L-27 0ZM436 178Q436 216 422 244T382 291T321 319T246 331L195 75Q204 51 228 40T283 28Q311 28 338 38T388 68T423 115T436 178ZM252 364L312 367Q375 374 414 412T454 511Q454 571 415 604T307 639L252 364Z" />
<glyph unicode="C" glyph-name="C" horiz-adv-x="716" d="M370 -17Q302 -17 244 2T144 58T78 149T54 275Q54 354 88 427T183 557T328 647T513 681Q573 681 622 664T711 625L683 441H659L625 592Q599 617 570 631T499 645Q449 645 398 620T304 545T235 422T208
255Q208 198 222 154T262 80T320 35T392 19Q430 19 460 30T513 58L620 228H646L592 28Q554 14 498 -1T370 -17Z" />
<glyph unicode="D" glyph-name="D" horiz-adv-x="743" d="M191 56Q207 46 229 40T280 34Q350 35 404 64T495 140T550 249T569 376Q569 442 550 490T497 570T414 618T307 636L191 56ZM-21 28L55 49L169 614L98 637L103 664L318 665Q411 666 484 647T609 591T687
501T715 381Q715 289 678 217T574 96T416 21T216 -3L-27 0L-21 28Z" />
<glyph unicode="E" glyph-name="E" horiz-adv-x="602" d="M248 330L192 53Q200 47 214 42T253 37H401L522 214H552L487 0H-27L-21 28L55 49L169 614L98 637L103 664H529L602 666L572 473H544L507 628H305L255 367H368L419 461H447L402 229H371L360 330H248Z" />
<glyph unicode="F" glyph-name="F" horiz-adv-x="567" d="M244 317L191 49L277 27L273 0H-27L-21 28L55 49L169 614L98 637L103 664H512L594 666L562 465H533L498 628H306L252 357H368L420 455H448L401 214H372L360 317H244Z" />
<glyph unicode="G" glyph-name="G" horiz-adv-x="738" d="M206 256Q206 199 219 155T256 80T310 35T377 19Q420 19 453 39T495 103L522 240L424 260L430 291H712L706 260L652 240L614 44Q589 34 561 23T500 3T431 -12T352 -18Q288 -18 234 4T139 65T77 160T54
280Q54 359 86 431T178 559T322 648T509 681Q574 681 622 664T714 627L681 441H656L622 599Q601 620 571 632T503 645Q453 645 400 620T304 546T234 424T206 256Z" />
<glyph unicode="H" glyph-name="H" horiz-adv-x="758" d="M394 28L475 49L530 326H245L191 49L262 27L257 0H-27L-21 28L55 49L168 614L97 637L102 664H387L381 636L302 614L253 366H538L587 615L515 637L520 664H805L799 636L722 615L610 49L680 27L675 0H389L394 28Z" />
<glyph unicode="I" glyph-name="I" horiz-adv-x="339" d="M-21 28L55 49L169 614L98 637L103 664H385L380 636L303 615L190 49L260 27L255 0H-27L-21 28Z" />
<glyph unicode="J" glyph-name="J" horiz-adv-x="348" d="M201 57Q189 -2 169 -48T113 -127T27 -183T-98 -216L-103 -194Q-60 -173 -32 -149T15 -95T45 -31T65 46L177 615L97 637L102 664H394L389 636L312 615L201 57Z" />
<glyph unicode="K" glyph-name="K" horiz-adv-x="688" d="M-21 28L55 49L168 614L98 637L103 664H391L386 636L303 614L191 50L262 27L258 0H-27L-21 28ZM642 0Q589 -5 551 -6T485 2T432 33T383 96T328 199T255 350V351L580 614L501 635L505 664H719L714 635L639
614L371 400Q412 316 442 257T496 158T538 95T573 59T607 39T647 27L642 0Z" />
<glyph unicode="L" glyph-name="L" horiz-adv-x="572" d="M191 52Q200 46 214 42T252 37H376L510 240H543L468 0H-27L-21 28L55 49L168 614L98 637L103 664H391L386 636L303 614L191 52Z" />
<glyph unicode="M" glyph-name="M" horiz-adv-x="889" d="M-30 28L48 49L197 611L125 637L130 664H345L434 211L689 633L702 664H913L908 636L831 615L749 49L819 27L814 0H530L535 28L616 49L693 565L415 107L371 26H336L325 106L228 574L98 50L185 28L181 0H-36L-30
28Z" />
<glyph unicode="N" glyph-name="N" horiz-adv-x="704" d="M497 -7L194 536L106 51L192 27L187 0H-27L-21 28L56 49L162 585Q150 602 134 613T104 629L87 637L92 664H277L542 191L617 613L532 637L537 664H750L745 636L668 615L572 131L549 -7H497Z" />
<glyph unicode="O" glyph-name="O" horiz-adv-x="772" d="M455 682Q509 682 560 663T652 604T716 508T741 375Q741 305 713 235T633 108T505 16T336 -20Q283 -20 233 -1T143 57T79 153T54 286Q54 357 82 428T162 555T288 647T455 682ZM594 443Q594 480 586 516T561
582T518 630T454 648Q415 648 381 630T319 582T269 510T231 421T208 324T200 226Q200 187 207 149T232 80T275 32T339 13Q400 13 447 52T527 154T577 292T594 443Z" />
<glyph unicode="P" glyph-name="P" horiz-adv-x="618" d="M276 315Q315 318 351 329T414 360T458 412T475 486Q475 550 432 589T306 637L190 49L277 27L272 0H-27L-21 28L55 49L168 614L98 637L103 664L354 666Q413 664 461 652T543 617T595 564T614 495Q614 442
587 402T514 335T405 296T271 287L276 315Z" />
<glyph unicode="Q" glyph-name="Q" horiz-adv-x="772" d="M455 682Q509 682 560 663T651 604T715 508T740 375Q740 313 719 252T657 137T557 45T424 -9Q462 -41 496 -68T565 -114T634 -145T708 -156Q749 -156 788 -144T875 -105L886 -123Q868 -139 843 -157T787
-190T718 -216T639 -226Q584 -226 536 -211T441 -166T343 -94T232 1Q195 15 163 40T107 101T69 183T55 286Q55 357 83 428T163 555T289 647T455 682ZM595 443Q595 482 587 518T562 584T519 630T455 648Q396 648 349 610T269 510T218 374T200 226Q200 187 207 149T231
81T274 32T339 13Q400 13 448 52T528 154T578 292T595 443Z" />
<glyph unicode="R" glyph-name="R" horiz-adv-x="684" d="M-21 28L55 49L168 614L98 637L103 664L349 665Q407 665 454 655T536 626T588 578T606 514Q606 477 591 449T549 399T490 364T420 341Q451 271 473 222T513 140T545 87T574 56T605 38T644 27L639 0Q587
-5 551 -6T489 1T442 28T401 82T358 172T302 305H238L188 50L274 27L269 0H-27L-21 28ZM245 337Q358 341 413 387T469 504Q469 532 459 556T429 599T378 627T304 637L245 337Z" />
<glyph unicode="S" glyph-name="S" horiz-adv-x="545" d="M78 237L106 60Q129 41 156 30T218 19Q247 19 272 28T315 55T344 95T355 145Q355 164 351 180T336 212T307 242T262 276L219 304Q187 325 166 343T132 382T114 424T108 474Q108 514 127 552T182 618T267
664T376 682Q423 682 465 670T540 643L497 457H472L452 613Q430 628 407 637T354 646Q325 646 302 637T263 612T237 575T228 530Q228 493 245 467T309 411L361 378Q392 358 415 340T455 302T478 260T486 209Q486 155 460 113T394 42T304 -3T206 -19Q175 -19 147
-14T93 -2T48 15T15 31L51 237H78Z" />
<glyph unicode="T" glyph-name="T" horiz-adv-x="669" d="M624 664L702 669L656 472H629L609 625H469L354 49L432 27L427 0H129L134 28L219 49L334 625H198L116 472H88L123 669L199 664H624Z" />
<glyph unicode="U" glyph-name="U" horiz-adv-x="722" d="M330 -22Q265 -22 215 -5T135 50T94 146T101 288L166 614L97 637L101 664H390L384 636L301 614L230 255Q220 204 225 165T249 100T298 60T367 46Q405 46 439 58T500 97T548 168T580 277L639 611L555 635L559
664H776L771 635L693 613L626 265Q614 203 592 150T533 59T447 0T330 -22Z" />
<glyph unicode="V" glyph-name="V" horiz-adv-x="660" d="M140 615L83 637L88 664H364L358 636L277 613L348 142L602 614L519 637L524 664H722L716 636L660 617L299 -9H244L140 615Z" />
<glyph unicode="W" glyph-name="W" horiz-adv-x="953" d="M515 430L273 -9H212L142 614L85 636L90 664H361L355 636L278 612L322 149L506 499L491 614L440 637L445 664H711L706 636L625 613L680 154L898 614L818 637L823 664H1013L1007 636L951 617L634 -9H572L515 430Z" />
<glyph unicode="X" glyph-name="X" horiz-adv-x="710" d="M44 45L305 319L174 614L107 637L113 664H408L402 636L320 614L408 403H411L598 612L511 637L516 664H737L731 636L659 614L424 365L563 49L636 27L630 0H329L334 28L417 49L321 280H319L110 47L203 27L197
0H-36L-30 28L44 45Z" />
<glyph unicode="Y" glyph-name="Y" horiz-adv-x="662" d="M401 263L359 48L427 26L422 0H143L149 27L224 48L264 250L146 614L87 637L93 664H381L375 636L290 614L383 297L598 612L510 637L516 664H716L711 636L653 616L401 263Z" />
<glyph unicode="Z" glyph-name="Z" horiz-adv-x="640" d="M-1 28L462 625H203L111 453H83L117 667L203 664H644V654L166 40H450L574 216H602L534 -3L447 0H-7L-1 28Z" />
<glyph unicode="[" glyph-name="bracketleft" horiz-adv-x="317" d="M12 -181L193 733H387L379 697H282L118 -145H215L207 -181H12Z" />
<glyph unicode="\" glyph-name="backslash" horiz-adv-x="433" d="M326 -206L117 740L155 748L363 -199L326 -206Z" />
<glyph unicode="]" glyph-name="bracketright" horiz-adv-x="310" d="M303 733L122 -181H-71L-63 -145H33L198 697H101L109 733H303Z" />
<glyph unicode="^" glyph-name="asciicircum" horiz-adv-x="446" d="M76 468L290 756H317L433 468H391L291 685L119 468H76Z" />
<glyph unicode="_" glyph-name="underscore" horiz-adv-x="408" d="M-65 -173H314L307 -215H-73L-65 -173Z" />
<glyph unicode="`" glyph-name="grave" horiz-adv-x="261" d="M241 763L264 563H237L132 754V763H241Z" />
<glyph unicode="a" glyph-name="a" horiz-adv-x="544" d="M522 517L406 91H410Q433 107 456 134T499 190L523 180Q503 139 479 104T427 44T373 3T323 -12Q305 -12 295 -4T280 17T276 46T283 78L328 208H321Q300 174 274 135T218 63T156 7T91 -16Q55 -16 30 8T5
90Q5 136 20 183T60 274T120 358T191 425T268 471T345 488Q383 488 413 472L436 517H522ZM161 77Q180 77 208 105T266 177T323 273T365 372L381 421Q370 435 356 444T325 453Q304 453 282 438T240 398T201 340T168 270T146 196T136 124Q135 95 142 86T161 77Z"
/>
<glyph unicode="b" glyph-name="b" horiz-adv-x="513" d="M170 -18Q133 -18 92 -4T16 45L6 55L153 642L84 693L88 705L297 749L179 287H184Q208 330 236 368T294 435T355 480T415 497Q454 497 480 463T504 363Q503 325 492 282T459 197T409 116T343 47T263 0T170
-18ZM124 60Q127 43 143 28T181 13Q217 13 250 47T310 131T353 237T372 339Q373 374 364 389T340 404Q324 404 305 389T265 350T226 296T190 234T161 173T142 122L124 60Z" />
<glyph unicode="c" glyph-name="c" horiz-adv-x="426" d="M268 442Q245 442 224 416T187 348T160 256T149 158Q148 111 163 91T205 71Q224 71 244 81T283 108T322 147T359 194L381 181Q362 145 339 111T286 48T222 3T143 -14Q114 -14 90 -3T50 27T24 72T15 130Q16
210 54 289T174 430Q211 459 257 478T347 498Q365 498 381 492T410 477T430 455T437 429Q437 406 421 384T385 351Q356 388 325 415T268 442Z" />
<glyph unicode="d" glyph-name="d" horiz-adv-x="550" d="M328 496Q349 496 367 492T400 483L440 642L371 693L375 705L586 748L420 92H423Q446 108 469 135T512 190L535 180Q515 138 490 103T439 43T386 3T338 -12Q306 -12 295 12T296 77L335 202H330Q314 174
290 137T235 65T169 8T98 -16Q81 -16 64 -10T34 12T14 52T7 113Q9 182 37 250T111 373T212 462T328 496ZM385 427Q358 463 325 463Q291 463 259 432T200 353T158 245T139 131Q137 101 146 87T168 73Q186 73 215 101T275 172T332 268T371 369L385 427Z" />
<glyph unicode="e" glyph-name="e" horiz-adv-x="424" d="M150 -14Q80 -14 47 29T15 143Q16 185 28 225T61 301T109 368T168 424Q210 457 256 477T348 498Q365 498 380 493T408 479T426 455T432 422Q431 386 405 355T338 300T247 258T145 230Q142 212 142 193Q140
131 160 101T217 71Q235 71 254 79T291 102T325 135T355 172L377 160Q364 134 343 104T292 47T228 4T150 -14ZM289 452Q271 452 250 437T210 395T175 333T150 258Q180 266 210 282T263 319T302 365T318 417Q320 452 289 452Z" />
<glyph unicode="f" glyph-name="f" horiz-adv-x="338" d="M40 483H134Q152 540 186 589T262 674T350 730T439 751Q461 751 478 745T509 730T529 710T536 686Q536 672 530 660T515 638T494 620T470 606Q447 648 425 675T373 702Q360 702 345 692T315 657T285 590T256
483H373L363 438H247L177 77Q161 -4 130 -65T60 -168T-22 -230T-105 -251Q-133 -251 -157 -234T-181 -189Q-181 -162 -163 -143T-116 -114Q-96 -158 -76 -180T-38 -202Q-18 -202 -4 -171T24 -66L123 438H32L40 483Z" />
<glyph unicode="g" glyph-name="g" horiz-adv-x="468" d="M274 495Q297 495 317 491T359 482L502 492L492 426L389 444L388 440Q399 429 408 404T415 349Q413 312 397 276T351 212T282 165T193 147Q175 147 159 150Q135 137 135 117Q135 107 141 101T164 87L322
20Q374 -2 392 -26T410 -80Q409 -116 386 -147T325 -200T235 -236T128 -249Q25 -249 -27 -219T-77 -141Q-75 -98 -28 -71T98 -27V-23L94 -22Q68 -12 50 8T32 59Q32 77 39 90T59 114T88 135T125 156V161Q87 178 65 212T45 291Q46 328 61 364T106 430T177 477T274
495ZM132 -37Q86 -51 60 -69T33 -120Q31 -161 71 -185T184 -210Q212 -210 236 -204T278 -189T307 -166T318 -139Q318 -125 306 -112T255 -84L132 -37ZM274 463Q252 463 231 442T193 387T164 313T152 236Q151 208 158 192T185 175Q207 175 229 197T268 253T296 328T309
407Q310 427 303 445T274 463Z" />
<glyph unicode="h" glyph-name="h" horiz-adv-x="538" d="M184 277H191Q213 318 240 357T298 428T360 478T426 497Q465 497 483 471T485 383L406 92H409Q432 108 455 135T499 190L521 180Q500 139 475 104T424 43T371 3T321 -12Q295 -12 281 9T279 78L362 370Q372
405 349 405Q331 405 302 378T243 305T184 202T138 83L117 10L9 -15L-5 0L159 642L97 693L101 705L303 749L184 277Z" />
<glyph unicode="i" glyph-name="i" horiz-adv-x="282" d="M117 407Q105 416 80 418T30 415L32 431Q57 454 94 475T175 497Q191 497 205 492T227 473T238 439T231 386L151 92H155Q177 108 201 135T243 190L267 180Q248 142 224 107T172 46T118 4T67 -12Q41 -12
26 9T25 78L117 407ZM145 667Q145 695 165 715T213 735Q242 735 261 715T281 667Q281 638 261 619T212 599Q183 599 164 618T145 667Z" />
<glyph unicode="j" glyph-name="j" horiz-adv-x="266" d="M119 406Q105 416 80 418T31 415L32 431Q57 454 93 475T174 497Q190 497 204 491T227 472T238 436T232 380L150 44Q135 -17 108 -71T44 -165T-34 -228T-122 -252Q-135 -252 -149 -248T-175 -235T-195 -215T-203
-188Q-204 -159 -185 -141T-139 -114Q-100 -202 -65 -202Q-52 -202 -42 -187T-21 -143T-2 -75T20 11L119 406ZM145 667Q145 695 164 715T213 735Q242 735 261 715T281 667Q281 638 261 619T212 599Q183 599 164 618T145 667Z" />
<glyph unicode="k" glyph-name="k" horiz-adv-x="507" d="M401 -41Q380 -41 365 -38T337 -27T310 -5T279 32L168 176Q144 124 130 69L115 9L9 -15L-5 0L159 642L96 693L101 705L303 749L183 279H190Q212 320 238 359T294 429T355 478T421 497Q455 497 476 475T498
415Q498 354 441 303T281 206L464 -14V-24Q456 -29 440 -35T401 -41ZM365 410Q346 410 322 392T271 342T219 270T172 184Q281 229 339 279T398 372Q398 410 365 410Z" />
<glyph unicode="l" glyph-name="l" horiz-adv-x="269" d="M253 180Q233 138 208 103T156 42T102 2T53 -12Q26 -12 13 9T11 78L155 642L86 693L90 705L300 749L137 92H141Q166 110 188 135T230 190L253 180Z" />
<glyph unicode="m" glyph-name="m" horiz-adv-x="815" d="M118 409Q108 416 83 418T31 415L34 431Q46 443 61 454T93 475T129 491T167 497Q209 497 227 467T227 376L196 276H203Q227 319 254 359T312 430T373 479T438 497Q477 497 493 466T490 372L456 269H463Q489
315 517 356T576 429T638 478T703 497Q742 497 760 471T762 383L683 92H686Q709 108 732 135T776 190L799 180Q778 139 753 104T702 44T649 3T599 -12Q586 -12 575 -7T558 9T550 37T556 78L639 370Q644 386 641 395T626 405Q607 405 579 377T520 304T461 201T415
83L393 10L285 -15L270 0L374 370Q378 385 375 395T361 405Q341 405 312 377T252 303T193 198T148 77L130 10L18 -15L4 0L118 409Z" />
<glyph unicode="n" glyph-name="n" horiz-adv-x="550" d="M118 408Q107 416 83 418T32 415L34 431Q46 443 61 454T93 475T129 491T167 497Q209 497 227 467T227 376L196 276H203Q227 319 254 359T312 430T373 479T438 497Q477 497 495 471T497 383L418 92H421Q444
108 467 135T511 190L533 180Q513 140 488 105T437 44T384 3T333 -12Q307 -12 293 9T291 78L374 370Q384 405 361 405Q342 405 314 378T255 305T196 201T150 83L128 10L18 -15L4 0L118 408Z" />
<glyph unicode="o" glyph-name="o" horiz-adv-x="508" d="M309 468Q289 468 270 452T233 407T201 344T175 270T157 194T149 125Q147 75 155 45T192 14Q212 14 231 30T269 72T302 133T330 206T349 282T358 354Q359 375 358 395T351 432T335 458T309 468ZM319 496Q362
496 394 480T446 438T476 377T486 306Q486 252 466 196T408 93T315 16T188 -14Q145 -14 114 0T62 41T31 102T21 180Q21 231 40 286T97 388T190 465T319 496Z" />
<glyph unicode="p" glyph-name="p" horiz-adv-x="519" d="M104 367Q84 356 63 344T19 318L6 342Q32 362 59 381T116 417L145 532H242L228 472Q260 484 289 490T346 497Q421 497 461 458T500 355Q499 287 473 221T403 102T306 17T194 -16Q177 -16 162 -12T133 -3L89
-182L214 -191L206 -229H-101L-96 -202L-30 -180L104 367ZM200 19Q231 19 261 51T316 133T355 237T371 340Q372 388 352 414T296 440Q276 440 241 429L146 47Q157 34 170 27T200 19Z" />
<glyph unicode="q" glyph-name="q" horiz-adv-x="524" d="M301 100Q306 120 311 138T321 170Q326 187 332 202H326Q311 174 287 137T232 65T166 8T95 -16Q78 -16 62 -10T32 12T12 51T5 110Q7 181 36 250T110 373T212 460T327 493Q356 493 377 485T414 466L432
497H521L350 -182L435 -192L429 -229H133L139 -201L232 -181L301 100ZM165 73Q183 73 212 101T272 172T329 268T368 369L381 422Q354 461 319 461Q288 461 257 430T199 352T155 246T136 134Q135 102 143 88T165 73Z" />
<glyph unicode="r" glyph-name="r" horiz-adv-x="423" d="M115 409Q99 419 76 420T29 416L31 432Q57 458 93 477T168 497Q186 497 200 491T223 471T232 436T224 387L169 222H180Q216 300 245 353T298 438T345 484T391 498Q419 498 434 483T449 444Q449 423 440
405T418 372T388 348T357 332H335Q349 359 349 377T336 395Q322 395 299 367T249 294T197 197T155 92L127 10L18 -15L4 0L115 409Z" />
<glyph unicode="s" glyph-name="s" horiz-adv-x="355" d="M308 151Q308 122 291 93T246 39T181 0T105 -16Q78 -16 56 -8T18 13T-6 43T-15 78Q-15 98 -6 116T19 151H21Q59 100 97 67T173 34Q190 34 203 46T216 75Q216 94 206 111T177 149L110 224Q93 242 83 256T67
283T59 305T57 328Q58 361 77 392T126 446T191 484T259 499Q302 499 330 476T358 421Q357 400 349 384T325 350H323Q291 389 256 416T188 443Q171 443 159 432T146 404Q146 387 155 372T186 332L250 260Q284 222 296 199T308 151Z" />
<glyph unicode="t" glyph-name="t" horiz-adv-x="354" d="M35 471L138 487L212 621H280L250 483H380L372 437H242L154 87H158Q176 96 196 113T236 150T271 190T299 226L323 211Q301 174 274 135T214 63T147 9T76 -12Q50 -12 35 9T28 65L121 437H31L35 471Z" />
<glyph unicode="u" glyph-name="u" horiz-adv-x="544" d="M111 408Q100 416 75 418T26 415L28 431Q40 443 55 454T89 475T127 491T169 497Q205 497 221 469T221 379L152 109Q148 93 152 88T163 82Q183 82 213 113T274 191T332 294T373 400L393 476L504 494L514
482L413 92H417Q439 108 462 135T505 190L527 180Q507 139 482 104T431 44T378 3T328 -12Q301 -12 288 8T290 79L341 245H336Q315 208 289 163T232 79T164 14T84 -13Q66 -13 52 -7T30 14T22 51T30 108L111 408Z" />
<glyph unicode="v" glyph-name="v" horiz-adv-x="456" d="M216 96Q258 150 287 191T334 264T360 320T368 364Q368 393 352 407T309 421Q299 421 288 419T269 415L271 432Q300 463 329 480T387 498Q424 498 442 475T460 416Q460 383 443 347T396 272T330 191T252
101L154 -14H145L104 5L85 408Q75 413 63 416T38 420Q23 420 5 415L8 431Q37 461 71 479T134 497Q168 497 185 477T205 404L216 96Z" />
<glyph unicode="w" glyph-name="w" horiz-adv-x="695" d="M449 94H452Q494 146 523 187T571 261T598 318T606 364Q606 393 591 407T550 421Q542 421 531 420T509 415L512 432Q541 463 569 480T626 498Q663 498 681 475T699 415Q699 382 682 347T635 272T569 190T491
100L393 -14H384L337 5L338 211H335Q322 195 309 179T281 144T248 102T207 49L158 -14H147L99 5L93 404Q74 420 38 420Q22 420 5 415L8 431Q37 461 71 479T137 497Q207 497 208 404L211 100H214Q244 137 276 180T334 260L332 407Q324 412 313 416T286 420Q270 420
252 415L254 431Q283 462 316 479T381 497Q394 497 406 493T428 478T443 448T449 399V94Z" />
<glyph unicode="x" glyph-name="x" horiz-adv-x="508" d="M294 -13Q272 -13 257 -2T234 42L204 173L174 125Q151 89 133 63T98 19T64 -7T25 -16Q0 -16 -19 1T-39 48Q-39 63 -35 76T-24 100Q-18 111 -9 121L18 97Q36 82 53 79T90 85T130 120T178 185L195 211L165
346Q158 376 150 389T128 402Q122 402 115 397T99 378T82 340T66 280H41Q45 334 58 374T90 442T134 482T184 496Q223 496 243 471T276 392L293 313L336 386Q355 419 371 440T402 474T431 492T461 498Q484 497 500 482T517 435Q517 417 510 400T493 368T469 341T443
322H414Q437 359 435 385T415 411Q398 411 380 388T332 322Q325 312 317 300T301 276L344 81H348Q361 86 376 98T406 126T435 160T462 195L486 186Q465 145 440 109T389 45T339 3T294 -13Z" />
<glyph unicode="y" glyph-name="y" horiz-adv-x="486" d="M12 271Q18 380 55 437T152 495Q177 495 198 481T236 435T263 355T274 239Q275 175 267 110T241 -6H248Q275 33 302 74T351 158T386 246T398 339Q398 374 385 410T349 476Q363 486 381 492T416 498Q438
498 456 482T476 417Q477 355 450 282T378 134T276 -9T158 -131T40 -217T-62 -249Q-94 -249 -116 -231T-139 -177Q-140 -150 -122 -129T-72 -108Q-43 -108 -25 -130T6 -195H10Q52 -176 80 -134T126 -39T151 74T159 186Q159 292 142 347T101 402Q81 402 66 369T36
271H12Z" />
<glyph unicode="z" glyph-name="z" horiz-adv-x="475" d="M496 463L159 147L249 111Q285 96 310 94T356 101T394 131T433 182L456 171Q411 72 368 27T272 -18Q255 -18 235 -12T179 11L69 62L9 -17L-29 18L317 343L196 389Q154 405 130 408T101 394Q96 381 110
365T165 329Q137 268 87 268Q64 268 49 283T34 324Q34 349 51 380T96 437T156 482T221 500Q233 500 244 499T267 493T296 482T337 463L406 430L456 498L496 463Z" />
<glyph unicode="{" glyph-name="braceleft" horiz-adv-x="333" d="M110 284Q136 279 154 270T182 244T194 202T189 141L157 -33Q150 -71 150 -94T158 -131T184 -150T229 -155L224 -181H209Q102 -184 71 -135T66 10L112 183Q123 226 110 246T65 268L28 269L35 306L72
307Q141 308 150 380L176 570Q181 608 195 638T234 690T297 723T388 733H404L399 707Q372 707 353 703T320 685T297 647T279 585L245 420Q231 352 200 323T110 287V284Z" />
<glyph unicode="|" glyph-name="bar" horiz-adv-x="241" d="M4 -205L192 741H232L45 -205H4Z" />
<glyph unicode="}" glyph-name="braceright" horiz-adv-x="333" d="M210 268Q184 273 166 282T138 307T126 349T131 411L163 585Q170 623 170 646T162 683T136 702T91 707L96 733H111Q165 734 198 723T248 687T266 627T254 543L208 369Q197 326 210 306T255 284L292
283L285 246L248 245Q179 244 170 172L144 -18Q139 -56 125 -86T86 -138T23 -171T-68 -181H-84L-79 -155Q-52 -155 -33 -151T1 -133T24 -95T42 -33L75 132Q88 200 119 229T210 265V268Z" />
<glyph unicode="~" glyph-name="asciitilde" horiz-adv-x="478" d="M10 208L18 227Q36 275 57 301T103 337T157 346T219 333L297 309Q332 298 355 295T396 296T427 315T457 355L479 345L472 325Q437 238 388 212T266 210L204 230Q163 243 137 249T93 252T61 236T32
198L10 208Z" />
<glyph unicode="&#xa0;" glyph-name="uni00A0" horiz-adv-x="156" />
<glyph unicode="&#xa1;" glyph-name="exclamdown" horiz-adv-x="297" d="M4 -118L161 387H188L149 -118H4ZM195 596Q226 596 248 575T270 522Q270 490 248 469T195 447Q164 447 142 468T120 522Q120 553 142 574T195 596Z" />
<glyph unicode="&#xa2;" glyph-name="cent" horiz-adv-x="456" d="M174 -14H163Q133 -14 109 -3T66 27T39 75T29 136Q30 227 77 309T208 447Q228 461 252 472T304 491L334 607H368L340 498H351Q371 498 389 493T421 477T443 454T451 425Q451 412 446 401T432 382T416
368T401 360Q381 392 363 412T325 442L229 66Q266 71 300 103T378 194L398 181Q384 154 366 124T325 68T274 22T210 -8L181 -123H146L174 -14ZM156 164Q155 123 166 100T195 69L293 449Q268 447 244 423T200 358T168 268T156 164Z" />
<glyph unicode="&#xa3;" glyph-name="sterling" horiz-adv-x="643" d="M102 303H225L243 378Q259 447 292 499T366 585T447 636T522 653Q543 653 562 647T597 629T620 603T629 572Q629 542 605 526T543 503Q533 560 515 586T477 613Q451 613 432 584T397 489L351
303H536L527 262H341Q329 219 310 184T268 120T219 70T167 32Q223 2 271 -29L311 -55Q354 -83 382 -101T428 -130T459 -145T483 -150Q515 -150 524 -112T518 -6Q560 -3 585 -12T610 -53Q610 -74 594 -100T550 -149T486 -187T409 -203Q377 -203 346 -191T284 -156T221
-106T157 -46L108 2Q54 -18 25 -18Q-1 -18 -17 -6T-33 29Q-33 51 -16 64T27 78Q48 78 74 71T129 50Q150 72 168 109T201 205L215 262H94L102 303Z" />
<glyph unicode="&#xa5;" glyph-name="yen" horiz-adv-x="604" d="M64 294H231L122 587L72 609L77 636H343L337 608L261 589L350 313H352L548 584L458 609L463 636H658L653 608L603 589L381 294H556L549 259H366L351 183H533L526 149H344L324 46L403 26L398 0H106L112
27L195 45L215 149H35L41 183H222L237 259H57L64 294Z" />
<glyph unicode="&#xa6;" glyph-name="brokenbar" horiz-adv-x="242" d="M107 313L192 741H232L147 313H107ZM4 -205L89 222H129L45 -205H4Z" />
<glyph unicode="&#xa7;" glyph-name="section" horiz-adv-x="498" d="M230 -94Q230 -82 226 -69T214 -36T194 9T163 74L115 178Q95 220 84 257T72 325Q72 375 92 419T144 502T217 570T300 622T381 654T450 666Q491 666 510 647T530 603Q530 580 515 564T475 544Q463
555 448 566Q435 575 417 584T376 599Q354 599 331 595T285 579Q277 563 277 542Q277 530 281 517T293 484T314 438T345 374L387 285Q413 230 424 192T435 124Q435 74 415 30T363 -53T290 -121T207 -173T126 -205T57 -217Q16 -217 -3 -198T-23 -154Q-23 -132 -9
-116T32 -95Q44 -106 59 -117Q72 -126 90 -135T131 -150Q152 -150 175 -146T221 -131Q230 -116 230 -94ZM166 383Q166 346 177 311T205 235L245 142Q270 84 281 48T292 -13Q292 -43 284 -64T267 -100H271Q302 -74 321 -34T341 66Q341 102 330 137T302 213L263 306Q239
363 227 399T215 462Q215 492 223 513T240 549H236Q205 523 186 483T166 383Z" />
<glyph unicode="&#xa8;" glyph-name="dieresis" horiz-adv-x="400" d="M149 605Q123 605 105 623T86 667Q86 693 104 712T149 731Q175 731 193 712T212 667Q212 641 194 623T149 605ZM337 605Q311 605 293 623T275 667Q275 693 293 712T337 731Q363 731 382 712T401
667Q401 641 382 623T337 605Z" />
<glyph unicode="&#xa9;" glyph-name="copyright" horiz-adv-x="776" d="M52 331Q55 404 84 467T163 578T276 652T413 679Q485 679 547 652T656 578T727 468T749 331Q746 258 717 195T638 84T524 10T387 -17Q314 -17 252 10T144 84T74 194T52 331ZM83 331Q81 265
104 207T168 105T266 36T389 11Q454 11 512 36T616 104T688 206T718 331Q720 398 697 456T632 557T534 626T412 651Q347 651 288 626T185 558T113 456T83 331ZM392 133Q341 133 305 148T245 188T212 246T203 314Q206 362 227 401T283 469T362 512T455 528Q491 528
522 518T575 496L562 391H542L517 472Q504 486 488 494T448 503Q422 503 398 490T354 453T323 393T308 311Q303 241 331 201T411 160Q431 160 447 166T477 183L531 274H552L530 166Q500 154 468 144T392 133Z" />
<glyph unicode="&#xaa;" glyph-name="ordfeminine" horiz-adv-x="479" d="M461 647L373 321H377Q399 332 420 355T458 400L477 390Q462 360 442 333T400 284T355 251T309 238Q286 238 274 257T276 322L299 398H296Q281 375 262 347T219 294T168 252T113 235Q84
235 67 255T49 313Q49 351 61 389T93 463T141 530T198 585T259 621T320 634Q334 634 348 630T375 620L388 647H461ZM180 318Q195 318 216 336T258 383T297 445T324 509L345 577Q335 588 324 595T297 603Q276 603 252 578T207 514T173 430T159 345Q159 333 165 326T180
318Z" />
<glyph unicode="&#xab;" glyph-name="guillemotleft" horiz-adv-x="500" d="M278 380L124 215L216 48L191 30L24 204L26 224L258 403L278 380ZM464 380L310 215L402 48L377 30L210 204L212 224L444 403L464 380Z" />
<glyph unicode="&#xac;" glyph-name="logicalnot" horiz-adv-x="562" d="M515 264V64H469V221H41V264H515Z" />
<glyph unicode="&#xae;" glyph-name="registered" horiz-adv-x="452" d="M83 551Q83 594 100 631T145 696T212 740T294 756Q337 756 375 740T441 697T485 632T502 551Q502 507 485 470T440 405T373 362T291 346Q248 346 210 361T144 404T100 469T83 551ZM113 551Q113
513 127 480T165 423T221 384T292 370Q330 370 363 384T420 422T458 479T472 551Q472 589 458 622T420 679T363 717T292 731Q254 731 221 717T164 679T127 622T113 551ZM172 464L202 470L236 644L207 649L210 664H300Q356 664 379 648T402 610Q402 596 396 586T379
570T358 559T337 552Q352 521 362 504T380 477T395 465T415 461L412 449Q385 446 369 446T340 456T316 485T286 540H271L258 469L278 463L276 450H169L172 464ZM274 557H299Q325 560 336 574T347 604Q347 621 334 635T291 648L274 557Z" />
<glyph unicode="&#xaf;" glyph-name="macron" horiz-adv-x="400" d="M92 690H374L361 624H78L92 690Z" />
<glyph unicode="&#xb0;" glyph-name="degree" horiz-adv-x="301" d="M69 603Q69 630 79 654T108 696T151 724T204 735Q232 735 256 725T297 696T324 654T334 603Q334 575 324 551T295 509T252 481T200 470Q171 470 147 480T106 509T79 551T69 603ZM108 603Q108
561 134 532T202 503Q243 503 269 532T296 603Q296 645 270 674T202 703Q161 703 135 674T108 603Z" />
<glyph unicode="&#xb1;" glyph-name="plusminus" horiz-adv-x="561" d="M304 326V111H258V326H44V368H258V583H304V368H518V326H304ZM44 43H518V0H44V43Z" />
<glyph unicode="&#xb4;" glyph-name="acute" horiz-adv-x="261" d="M343 763V755L190 563H161L234 763H343Z" />
<glyph unicode="&#xb6;" glyph-name="paragraph" horiz-adv-x="545" d="M143 -208Q105 -208 74 -196T21 -162T-13 -111T-26 -47Q-26 -11 -13 18T22 67T71 99T128 110Q180 110 209 83T239 17Q239 -18 216 -40T161 -62Q138 -62 119 -48T100 -4Q118 7 135 22T163
52V56Q150 75 117 75Q100 75 83 68T50 46T26 9T16 -42Q16 -67 25 -90T51 -131T92 -159T148 -170Q178 -170 205 -160T255 -128T294 -75T320 2L443 627H390L313 233H266Q225 233 192 247T135 286T98 344T85 415Q84 470 107 515T167 594T252 645T347 664H583L577 636L504
615L387 20Q375 -42 351 -85T293 -156T222 -195T143 -208Z" />
<glyph unicode="&#xb7;" glyph-name="periodcentered" horiz-adv-x="281" d="M138 195Q107 195 85 218T62 272Q62 303 84 326T138 349Q170 349 192 326T215 272Q215 241 193 218T138 195Z" />
<glyph unicode="&#xb8;" glyph-name="cedilla" horiz-adv-x="261" d="M-12 -231Q8 -225 27 -218T62 -200T86 -178T96 -149Q96 -126 82 -116T53 -100L130 9H160L118 -53Q153 -62 171 -79T190 -122Q190 -152 173 -173T128 -210T64 -235T-9 -251L-12 -231Z" />
<glyph unicode="&#xba;" glyph-name="ordmasculine" horiz-adv-x="443" d="M162 348Q161 313 169 288T200 263Q225 263 247 290T287 359T316 448T327 537Q327 549 326 563T321 589T309 609T288 617Q264 617 242 588T202 518T174 430T162 348ZM297 645Q329 645
355 633T399 599T426 550T436 491Q436 442 419 396T369 314T293 257T196 235Q163 235 137 247T93 280T66 330T56 392Q56 440 74 486T124 567T200 623T297 645Z" />
<glyph unicode="&#xbb;" glyph-name="guillemotright" horiz-adv-x="500" d="M16 51L169 215L78 383L103 402L270 227L267 207L36 29L16 51ZM201 51L354 215L263 383L288 402L455 227L452 207L221 29L201 51Z" />
<glyph unicode="&#xbc;" glyph-name="onequarter" horiz-adv-x="753" d="M202 325L263 313L260 292H22L26 313L102 325L160 598L80 595V617L265 671H275L202 325ZM64 -58L669 724L696 702L90 -82L64 -58ZM530 31L543 91H370L377 126L658 383L697 376L647 147H713L702
91H634L621 30L667 20L664 0H473L478 20L530 31ZM555 147L585 284L436 147H555Z" />
<glyph unicode="&#xbd;" glyph-name="onehalf" horiz-adv-x="784" d="M64 -58L669 724L696 702L90 -82L64 -58ZM202 325L263 313L260 292H22L26 313L102 325L160 598L80 595V617L265 671H275L202 325ZM530 77H731L713 0H424L431 26L551 125Q599 164 622 195T646
257Q646 285 628 302T578 320Q557 320 535 307T493 265L473 278Q496 323 533 354T628 385Q655 385 675 377T710 354T732 322T740 285Q740 258 729 236T699 195T654 158T600 122L530 77Z" />
<glyph unicode="&#xbe;" glyph-name="threequarters" horiz-adv-x="776" d="M220 499Q268 495 296 471T324 412Q324 381 307 357T263 316T203 291T137 282Q89 282 59 299T28 343Q28 357 39 371T75 389Q93 346 116 327T165 307Q194 307 213 327T232 375Q231 410
200 434T105 461L110 489Q172 500 207 521T243 572Q243 592 229 605T192 619Q168 619 146 605T99 563L81 576Q90 593 103 610T134 642T175 666T230 676Q275 676 303 656T332 602Q332 583 324 568T300 541T265 520T221 504L220 499ZM87 -58L692 724L719 702L113
-82L87 -58ZM553 31L566 91H393L400 126L681 383L720 376L670 147H736L725 91H657L644 30L690 20L687 0H496L501 20L553 31ZM578 147L608 284L459 147H578Z" />
<glyph unicode="&#xbf;" glyph-name="questiondown" horiz-adv-x="408" d="M266 -117L220 -103Q182 -91 146 -70T83 -17T39 52T22 135Q22 209 61 246T165 295L276 316L300 387H330L304 214L144 190Q102 184 83 171T63 133Q63 110 78 92T120 61T182 37T257 21L290
16L266 -117ZM340 596Q371 596 392 575T414 522Q414 490 393 469T340 447Q308 447 287 468T265 522Q265 553 286 574T340 596Z" />
<glyph unicode="&#xc0;" glyph-name="Agrave" horiz-adv-x="702" d="M-37 28L30 47L393 668L430 675L478 683L572 50L636 27L630 0H348L353 28L437 49L413 224H187L91 51L189 27L184 0H-43L-37 28ZM215 275H406L369 549H368L215 275ZM414 871L461 728H421L303
859V871H414Z" />
<glyph unicode="&#xc1;" glyph-name="Aacute" horiz-adv-x="702" d="M-37 28L30 47L393 668L430 675L478 683L572 50L636 27L630 0H348L353 28L437 49L413 224H187L91 51L189 27L184 0H-43L-37 28ZM215 275H406L369 549H368L215 275ZM613 871V859L455 728H413L495
871H613Z" />
<glyph unicode="&#xc2;" glyph-name="Acircumflex" horiz-adv-x="702" d="M-37 28L30 47L393 668L430 675L478 683L572 50L636 27L630 0H348L353 28L437 49L413 224H187L91 51L189 27L184 0H-43L-37 28ZM215 275H406L369 549H368L215 275ZM286 728L428 871H513L592
728H551L458 802L331 728H286Z" />
<glyph unicode="&#xc3;" glyph-name="Atilde" horiz-adv-x="702" d="M-37 28L30 47L393 668L430 675L478 683L572 50L636 27L630 0H348L353 28L437 49L413 224H187L91 51L189 27L184 0H-43L-37 28ZM215 275H406L369 549H368L215 275ZM283 755L290 770Q308 808
326 830T366 862T411 869T466 856L499 844Q520 836 537 833T568 833T596 848T625 883L642 875L633 856Q614 815 596 792T558 759T513 751T457 765L423 777Q398 786 380 790T349 791T324 778T301 747L283 755Z" />
<glyph unicode="&#xc4;" glyph-name="Adieresis" horiz-adv-x="702" d="M-37 28L30 47L393 668L430 675L478 683L572 50L636 27L630 0H348L353 28L437 49L413 224H187L91 51L189 27L184 0H-43L-37 28ZM215 275H406L369 549H368L215 275ZM340 741Q314 741 296 759T277
803Q277 829 295 848T340 867Q366 867 384 848T403 803Q403 777 385 759T340 741ZM566 741Q540 741 522 759T504 803Q504 829 522 848T566 867Q592 867 611 848T630 803Q630 777 611 759T566 741Z" />
<glyph unicode="&#xc5;" glyph-name="Aring" horiz-adv-x="702" d="M-37 28L30 47L393 668L430 675L478 683L572 50L636 27L630 0H348L353 28L437 49L413 224H187L91 51L189 27L184 0H-43L-37 28ZM215 275H406L369 549H368L215 275ZM348 831Q348 874 377 903T452
932Q497 932 526 904T556 832Q556 811 548 793T526 761T493 739T451 731Q406 731 377 760T348 831ZM386 832Q386 803 405 784T452 765Q479 765 498 783T517 831Q517 861 498 880T451 899Q424 899 405 881T386 832Z" />
<glyph unicode="&#xc6;" glyph-name="AE" horiz-adv-x="956" d="M603 324L549 54Q557 48 571 43T610 38H754L875 214H905L841 0H334L340 28L412 49L466 323H291L94 51L191 27L186 0H-40L-34 27L26 46L457 613L375 637L380 664H883L955 666L925 473H897L860 627H662L610
364H723L772 455H800L755 229H723L714 324H603ZM516 622L323 365H475L526 622H516Z" />
<glyph unicode="&#xc7;" glyph-name="Ccedilla" horiz-adv-x="716" d="M202 -231Q222 -225 241 -218T276 -200T300 -178T310 -149Q310 -126 296 -116T267 -100L327 -15Q267 -9 217 12T131 70T74 158T54 275Q54 354 88 427T183 557T328 647T513 681Q573 681 622
664T711 625L683 441H659L625 592Q599 617 570 631T499 645Q449 645 398 620T304 545T235 422T208 255Q208 198 222 154T262 80T320 35T392 19Q430 19 460 30T513 58L620 228H646L592 28Q554 14 498 -1T370 -17H356L332 -53Q367 -62 385 -79T404 -122Q404 -152
387 -173T342 -210T278 -235T205 -251L202 -231Z" />
<glyph unicode="&#xc8;" glyph-name="Egrave" horiz-adv-x="602" d="M375 871L422 728H382L264 859V871H375ZM248 330L192 53Q200 47 214 42T253 37H401L522 214H552L487 0H-27L-21 28L55 49L169 614L98 637L103 664H529L602 666L572 473H544L507 628H305L255
367H368L419 461H447L402 229H371L360 330H248Z" />
<glyph unicode="&#xc9;" glyph-name="Eacute" horiz-adv-x="602" d="M566 871V859L408 728H366L448 871H566ZM248 330L192 53Q200 47 214 42T253 37H401L522 214H552L487 0H-27L-21 28L55 49L169 614L98 637L103 664H529L602 666L572 473H544L507 628H305L255
367H368L419 461H447L402 229H371L360 330H248Z" />
<glyph unicode="&#xca;" glyph-name="Ecircumflex" horiz-adv-x="602" d="M232 728L374 871H459L538 728H497L404 802L277 728H232ZM248 330L192 53Q200 47 214 42T253 37H401L522 214H552L487 0H-27L-21 28L55 49L169 614L98 637L103 664H529L602 666L572 473H544L507
628H305L255 367H368L419 461H447L402 229H371L360 330H248Z" />
<glyph unicode="&#xcb;" glyph-name="Edieresis" horiz-adv-x="602" d="M248 330L192 53Q200 47 214 42T253 37H401L522 214H552L487 0H-27L-21 28L55 49L169 614L98 637L103 664H529L602 666L572 473H544L507 628H305L255 367H368L419 461H447L402 229H371L360
330H248ZM277 741Q251 741 233 759T214 803Q214 829 232 848T277 867Q303 867 321 848T340 803Q340 777 322 759T277 741ZM503 741Q477 741 459 759T441 803Q441 829 459 848T503 867Q529 867 548 848T567 803Q567 777 548 759T503 741Z" />
<glyph unicode="&#xcc;" glyph-name="Igrave" horiz-adv-x="339" d="M-21 28L55 49L169 614L98 637L103 664H385L380 636L303 615L190 49L260 27L255 0H-27L-21 28ZM498 871L545 728H505L387 859V871H498Z" />
<glyph unicode="&#xcd;" glyph-name="Iacute" horiz-adv-x="339" d="M-21 28L55 49L169 614L98 637L103 664H385L380 636L303 615L190 49L260 27L255 0H-27L-21 28ZM688 871V859L530 728H488L570 871H688Z" />
<glyph unicode="&#xce;" glyph-name="Icircumflex" horiz-adv-x="339" d="M-21 28L55 49L169 614L98 637L103 664H385L380 636L303 615L190 49L260 27L255 0H-27L-21 28ZM358 728L500 871H585L664 728H623L530 802L403 728H358Z" />
<glyph unicode="&#xcf;" glyph-name="Idieresis" horiz-adv-x="339" d="M171 741Q145 741 127 758T108 802Q108 828 126 846T171 865Q197 865 216 847T235 802Q235 776 216 759T171 741ZM360 741Q334 741 316 758T297 802Q297 828 315 846T360 865Q386 865 405
847T424 802Q424 776 405 759T360 741ZM-21 28L55 49L169 614L98 637L103 664H385L380 636L303 615L190 49L260 27L255 0H-27L-21 28Z" />
<glyph unicode="&#xd0;" glyph-name="Eth" horiz-adv-x="743" d="M-21 28L55 49L108 315H19L27 353H115L168 614L97 637L102 664L318 665Q411 665 484 646T609 591T687 501T715 381Q715 289 678 217T574 96T416 21T216 -3L-27 0L-21 28ZM242 315L191 56Q207 46
229 40T280 34Q350 35 404 64T495 140T550 249T569 376Q569 442 550 490T496 570T413 618T306 636L250 353H400L393 315H242Z" />
<glyph unicode="&#xd1;" glyph-name="Ntilde" horiz-adv-x="704" d="M280 755L287 770Q305 808 323 830T363 862T408 869T463 856L496 844Q517 836 534 833T565 833T593 848T622 883L639 875L630 856Q611 815 593 792T555 759T510 751T454 765L420 777Q395 786
377 790T346 791T321 778T298 747L280 755ZM497 -7L194 536L106 51L192 27L187 0H-27L-21 28L56 49L162 585Q150 602 134 613T104 629L87 637L92 664H277L542 191L617 613L532 637L537 664H750L745 636L668 615L572 131L549 -7H497Z" />
<glyph unicode="&#xd2;" glyph-name="Ograve" horiz-adv-x="772" d="M441 871L488 728H448L330 859V871H441ZM455 682Q509 682 560 663T652 604T716 508T741 375Q741 305 713 235T633 108T505 16T336 -20Q283 -20 233 -1T143 57T79 153T54 286Q54 357 82 428T162
555T288 647T455 682ZM594 443Q594 480 586 516T561 582T518 630T454 648Q415 648 381 630T319 582T269 510T231 421T208 324T200 226Q200 187 207 149T232 80T275 32T339 13Q400 13 447 52T527 154T577 292T594 443Z" />
<glyph unicode="&#xd3;" glyph-name="Oacute" horiz-adv-x="772" d="M634 871V859L476 728H434L516 871H634ZM455 682Q509 682 560 663T652 604T716 508T741 375Q741 305 713 235T633 108T505 16T336 -20Q283 -20 233 -1T143 57T79 153T54 286Q54 357 82 428T162
555T288 647T455 682ZM594 443Q594 480 586 516T561 582T518 630T454 648Q415 648 381 630T319 582T269 510T231 421T208 324T200 226Q200 187 207 149T232 80T275 32T339 13Q400 13 447 52T527 154T577 292T594 443Z" />
<glyph unicode="&#xd4;" glyph-name="Ocircumflex" horiz-adv-x="772" d="M306 728L448 871H533L612 728H571L478 802L351 728H306ZM455 682Q509 682 560 663T652 604T716 508T741 375Q741 305 713 235T633 108T505 16T336 -20Q283 -20 233 -1T143 57T79 153T54
286Q54 357 82 428T162 555T288 647T455 682ZM594 443Q594 480 586 516T561 582T518 630T454 648Q415 648 381 630T319 582T269 510T231 421T208 324T200 226Q200 187 207 149T232 80T275 32T339 13Q400 13 447 52T527 154T577 292T594 443Z" />
<glyph unicode="&#xd5;" glyph-name="Otilde" horiz-adv-x="772" d="M304 755L311 770Q329 808 347 830T387 862T432 869T487 856L520 844Q541 836 558 833T589 833T617 848T646 883L663 875L654 856Q635 815 617 792T579 759T534 751T478 765L444 777Q419 786
401 790T370 791T345 778T322 747L304 755ZM455 682Q509 682 560 663T652 604T716 508T741 375Q741 305 713 235T633 108T505 16T336 -20Q283 -20 233 -1T143 57T79 153T54 286Q54 357 82 428T162 555T288 647T455 682ZM594 443Q594 480 586 516T561 582T518 630T454
648Q415 648 381 630T319 582T269 510T231 421T208 324T200 226Q200 187 207 149T232 80T275 32T339 13Q400 13 447 52T527 154T577 292T594 443Z" />
<glyph unicode="&#xd6;" glyph-name="Odieresis" horiz-adv-x="772" d="M357 741Q331 741 313 759T294 803Q294 829 312 848T357 867Q383 867 401 848T420 803Q420 777 402 759T357 741ZM583 741Q557 741 539 759T521 803Q521 829 539 848T583 867Q609 867 628
848T647 803Q647 777 628 759T583 741ZM455 682Q509 682 560 663T652 604T716 508T741 375Q741 305 713 235T633 108T505 16T336 -20Q283 -20 233 -1T143 57T79 153T54 286Q54 357 82 428T162 555T288 647T455 682ZM594 443Q594 480 586 516T561 582T518 630T454
648Q415 648 381 630T319 582T269 510T231 421T208 324T200 226Q200 187 207 149T232 80T275 32T339 13Q400 13 447 52T527 154T577 292T594 443Z" />
<glyph unicode="&#xd7;" glyph-name="multiply" horiz-adv-x="562" d="M263 211L75 21L43 52L232 242L46 430L79 462L265 275L452 467L482 435L296 245L484 55L451 22L263 211Z" />
<glyph unicode="&#xd8;" glyph-name="Oslash" horiz-adv-x="772" d="M70 -40L146 56Q104 95 79 152T54 286Q54 357 82 428T162 555T288 647T455 682Q537 682 607 638L660 706H704L635 618Q683 580 712 519T741 375Q741 305 713 235T633 108T505 16T336 -20Q292
-20 250 -6T172 34L114 -40H70ZM596 445Q596 499 579 548L222 97Q239 60 267 37T339 13Q400 13 448 52T529 154T579 294T596 445ZM199 225Q199 202 201 180T209 136L562 582Q545 611 518 629T454 648Q395 648 348 609T268 509T217 373T199 225Z" />
<glyph unicode="&#xd9;" glyph-name="Ugrave" horiz-adv-x="722" d="M451 871L498 728H458L340 859V871H451ZM330 -22Q265 -22 215 -5T135 50T94 146T101 288L166 614L97 637L101 664H390L384 636L301 614L230 255Q220 204 225 165T249 100T298 60T367 46Q405
46 439 58T500 97T548 168T580 277L639 611L555 635L559 664H776L771 635L693 613L626 265Q614 203 592 150T533 59T447 0T330 -22Z" />
<glyph unicode="&#xda;" glyph-name="Uacute" horiz-adv-x="722" d="M649 871V859L491 728H449L531 871H649ZM330 -22Q265 -22 215 -5T135 50T94 146T101 288L166 614L97 637L101 664H390L384 636L301 614L230 255Q220 204 225 165T249 100T298 60T367 46Q405
46 439 58T500 97T548 168T580 277L639 611L555 635L559 664H776L771 635L693 613L626 265Q614 203 592 150T533 59T447 0T330 -22Z" />
<glyph unicode="&#xdb;" glyph-name="Ucircumflex" horiz-adv-x="722" d="M322 728L464 871H549L628 728H587L494 802L367 728H322ZM330 -22Q265 -22 215 -5T135 50T94 146T101 288L166 614L97 637L101 664H390L384 636L301 614L230 255Q220 204 225 165T249 100T298
60T367 46Q405 46 439 58T500 97T548 168T580 277L639 611L555 635L559 664H776L771 635L693 613L626 265Q614 203 592 150T533 59T447 0T330 -22Z" />
<glyph unicode="&#xdc;" glyph-name="Udieresis" horiz-adv-x="722" d="M330 -22Q265 -22 215 -5T135 50T94 146T101 288L166 614L97 637L101 664H390L384 636L301 614L230 255Q220 204 225 165T249 100T298 60T367 46Q405 46 439 58T500 97T548 168T580 277L639
611L555 635L559 664H776L771 635L693 613L626 265Q614 203 592 150T533 59T447 0T330 -22ZM376 741Q350 741 332 759T313 803Q313 829 331 848T376 867Q402 867 420 848T439 803Q439 777 421 759T376 741ZM602 741Q576 741 558 759T540 803Q540 829 558 848T602
867Q628 867 647 848T666 803Q666 777 647 759T602 741Z" />
<glyph unicode="&#xdd;" glyph-name="Yacute" horiz-adv-x="662" d="M401 263L359 48L427 26L422 0H143L149 27L224 48L264 250L146 614L87 637L93 664H381L375 636L290 614L383 297L598 612L510 637L516 664H716L711 636L653 616L401 263ZM633 871V859L475 728H433L515
871H633Z" />
<glyph unicode="&#xde;" glyph-name="Thorn" horiz-adv-x="605" d="M-21 28L56 49L169 614L98 637L103 664H387L382 636L303 614L282 508L311 509Q379 509 430 498T516 465T568 415T585 353Q585 301 556 265T478 205T369 172T245 164L250 192Q353 200 403 241T453
340Q453 396 409 434T276 478L191 49L262 27L255 0H-27L-21 28Z" />
<glyph unicode="&#xdf;" glyph-name="germandbls" horiz-adv-x="540" d="M542 634Q542 605 529 583T494 542T450 508T405 478T371 448T357 415Q357 398 366 382T397 337L451 263Q475 230 490 207T505 155Q505 122 488 92T443 38T380 0T308 -14Q288 -14 270 -9T237
5T215 27T207 59Q207 79 215 95T232 119Q250 103 269 88T306 61T342 42T373 35Q392 35 402 47T413 77Q413 95 402 113T367 162L315 231Q283 274 273 298T262 344Q262 374 275 396T308 438T351 476T393 515T425 561T437 619Q436 651 418 676T362 701Q341 701 319
690T275 648T236 566T205 431L150 79Q134 -25 99 -89T22 -190T-58 -238T-120 -251Q-154 -251 -175 -234T-198 -189Q-198 -168 -182 -148T-134 -114Q-121 -149 -100 -175T-56 -202Q-35 -202 -23 -173T-1 -82L69 366Q83 454 123 525T215 646T318 724T410 751Q445
751 470 741T511 715T534 677T542 634Z" />
<glyph unicode="&#xe0;" glyph-name="agrave" horiz-adv-x="544" d="M522 517L406 91H410Q433 107 456 134T499 190L523 180Q503 139 479 104T427 44T373 3T323 -12Q305 -12 295 -4T280 17T276 46T283 78L328 208H321Q300 174 274 135T218 63T156 7T91 -16Q55
-16 30 8T5 90Q5 136 20 183T60 274T120 358T191 425T268 471T345 488Q383 488 413 472L436 517H522ZM161 77Q180 77 208 105T266 177T323 273T365 372L381 421Q370 435 356 444T325 453Q304 453 282 438T240 398T201 340T168 270T146 196T136 124Q135 95 142 86T161
77ZM354 763L377 563H350L245 754V763H354Z" />
<glyph unicode="&#xe1;" glyph-name="aacute" horiz-adv-x="544" d="M522 517L406 91H410Q433 107 456 134T499 190L523 180Q503 139 479 104T427 44T373 3T323 -12Q305 -12 295 -4T280 17T276 46T283 78L328 208H321Q300 174 274 135T218 63T156 7T91 -16Q55
-16 30 8T5 90Q5 136 20 183T60 274T120 358T191 425T268 471T345 488Q383 488 413 472L436 517H522ZM161 77Q180 77 208 105T266 177T323 273T365 372L381 421Q370 435 356 444T325 453Q304 453 282 438T240 398T201 340T168 270T146 196T136 124Q135 95 142 86T161
77ZM527 763V755L374 563H345L418 763H527Z" />
<glyph unicode="&#xe2;" glyph-name="acircumflex" horiz-adv-x="544" d="M522 517L406 91H410Q433 107 456 134T499 190L523 180Q503 139 479 104T427 44T373 3T323 -12Q305 -12 295 -4T280 17T276 46T283 78L328 208H321Q300 174 274 135T218 63T156 7T91 -16Q55
-16 30 8T5 90Q5 136 20 183T60 274T120 358T191 425T268 471T345 488Q383 488 413 472L436 517H522ZM161 77Q180 77 208 105T266 177T323 273T365 372L381 421Q370 435 356 444T325 453Q304 453 282 438T240 398T201 340T168 270T146 196T136 124Q135 95 142 86T161
77ZM239 563L371 763H431L483 563H450L385 679L272 563H239Z" />
<glyph unicode="&#xe3;" glyph-name="atilde" horiz-adv-x="544" d="M522 517L406 91H410Q433 107 456 134T499 190L523 180Q503 139 479 104T427 44T373 3T323 -12Q305 -12 295 -4T280 17T276 46T283 78L328 208H321Q300 174 274 135T218 63T156 7T91 -16Q55
-16 30 8T5 90Q5 136 20 183T60 274T120 358T191 425T268 471T345 488Q383 488 413 472L436 517H522ZM161 77Q180 77 208 105T266 177T323 273T365 372L381 421Q370 435 356 444T325 453Q304 453 282 438T240 398T201 340T168 270T146 196T136 124Q135 95 142 86T161
77ZM199 589L206 605Q223 645 242 667T283 699T330 705T383 690L416 676Q435 668 451 665T481 664T510 681T540 718L558 709L549 690Q529 648 510 624T469 591T424 585T371 601L338 615Q313 625 296 628T266 628T241 613T217 581L199 589Z" />
<glyph unicode="&#xe4;" glyph-name="adieresis" horiz-adv-x="544" d="M522 517L406 91H410Q433 107 456 134T499 190L523 180Q503 139 479 104T427 44T373 3T323 -12Q305 -12 295 -4T280 17T276 46T283 78L328 208H321Q300 174 274 135T218 63T156 7T91 -16Q55
-16 30 8T5 90Q5 136 20 183T60 274T120 358T191 425T268 471T345 488Q383 488 413 472L436 517H522ZM161 77Q180 77 208 105T266 177T323 273T365 372L381 421Q370 435 356 444T325 453Q304 453 282 438T240 398T201 340T168 270T146 196T136 124Q135 95 142 86T161
77ZM290 605Q264 605 246 623T227 667Q227 693 245 712T290 731Q316 731 334 712T353 667Q353 641 335 623T290 605ZM478 605Q452 605 434 623T416 667Q416 693 434 712T478 731Q504 731 523 712T542 667Q542 641 523 623T478 605Z" />
<glyph unicode="&#xe5;" glyph-name="aring" horiz-adv-x="544" d="M522 517L406 91H410Q433 107 456 134T499 190L523 180Q503 139 479 104T427 44T373 3T323 -12Q305 -12 295 -4T280 17T276 46T283 78L328 208H321Q300 174 274 135T218 63T156 7T91 -16Q55 -16
30 8T5 90Q5 136 20 183T60 274T120 358T191 425T268 471T345 488Q383 488 413 472L436 517H522ZM161 77Q180 77 208 105T266 177T323 273T365 372L381 421Q370 435 356 444T325 453Q304 453 282 438T240 398T201 340T168 270T146 196T136 124Q135 95 142 86T161
77ZM284 672Q284 693 292 711T314 743T347 765T388 773Q433 773 462 745T492 673Q492 652 484 634T462 602T429 580T387 572Q342 572 313 600T284 672ZM322 673Q322 643 341 624T388 605Q415 605 434 624T453 672Q453 701 434 720T387 740Q360 740 341 721T322
673Z" />
<glyph unicode="&#xe6;" glyph-name="ae" horiz-adv-x="657" d="M375 -14Q327 -14 298 9T257 71H255Q236 51 219 35T183 8T145 -8T99 -14Q80 -14 62 -8T29 10T5 42T-4 89Q-2 140 36 170T150 217L268 245L290 327Q291 351 288 373T276 412T252 439T213 449Q187
449 169 433L155 325Q149 323 137 320T111 316Q90 316 76 326T63 359Q63 382 82 406T132 450T201 483T278 498Q337 498 360 468T387 395H390Q427 440 476 469T579 498Q619 498 643 478T666 423Q666 386 642 357T577 305T486 265T379 235Q377 224 376 214T375 192Q375
157 381 134T396 97T419 77T447 71Q468 71 488 80T527 105T561 138T589 172L610 160Q598 133 575 102T521 46T453 3T375 -14ZM260 214L201 197Q153 183 134 162T114 112Q112 88 125 70T164 52Q187 52 209 67T250 102Q244 151 259 210L260 214ZM530 452Q512 452
492 437T451 397T413 337T386 264Q471 296 514 335T559 418Q559 452 530 452Z" />
<glyph unicode="&#xe7;" glyph-name="ccedilla" horiz-adv-x="426" d="M8 -231Q28 -225 47 -218T82 -200T106 -178T116 -149Q116 -126 102 -116T73 -100L134 -13Q107 -12 85 -1T47 30T23 74T15 130Q16 210 54 289T174 430Q211 459 257 478T347 498Q365 498 381
492T410 477T430 455T437 429Q437 406 421 384T385 351Q356 388 325 415T268 442Q245 442 224 416T187 348T160 256T149 158Q148 111 163 91T205 71Q224 71 244 81T283 108T322 147T359 194L381 181Q363 148 342 115T294 55T235 10T165 -13L138 -53Q173 -62 191
-79T210 -122Q210 -152 193 -173T148 -210T84 -235T11 -251L8 -231Z" />
<glyph unicode="&#xe8;" glyph-name="egrave" horiz-adv-x="424" d="M150 -14Q80 -14 47 29T15 143Q16 185 28 225T61 301T109 368T168 424Q210 457 256 477T348 498Q365 498 380 493T408 479T426 455T432 422Q431 386 405 355T338 300T247 258T145 230Q142 212
142 193Q140 131 160 101T217 71Q235 71 254 79T291 102T325 135T355 172L377 160Q364 134 343 104T292 47T228 4T150 -14ZM289 452Q271 452 250 437T210 395T175 333T150 258Q180 266 210 282T263 319T302 365T318 417Q320 452 289 452ZM317 763L340 563H313L208
754V763H317Z" />
<glyph unicode="&#xe9;" glyph-name="eacute" horiz-adv-x="424" d="M486 763V755L333 563H304L377 763H486ZM150 -14Q80 -14 47 29T15 143Q16 185 28 225T61 301T109 368T168 424Q210 457 256 477T348 498Q365 498 380 493T408 479T426 455T432 422Q431 386 405
355T338 300T247 258T145 230Q142 212 142 193Q140 131 160 101T217 71Q235 71 254 79T291 102T325 135T355 172L377 160Q364 134 343 104T292 47T228 4T150 -14ZM289 452Q271 452 250 437T210 395T175 333T150 258Q180 266 210 282T263 319T302 365T318 417Q320
452 289 452Z" />
<glyph unicode="&#xea;" glyph-name="ecircumflex" horiz-adv-x="424" d="M198 563L330 763H390L442 563H409L344 679L231 563H198ZM150 -14Q80 -14 47 29T15 143Q16 185 28 225T61 301T109 368T168 424Q210 457 256 477T348 498Q365 498 380 493T408 479T426
455T432 422Q431 386 405 355T338 300T247 258T145 230Q142 212 142 193Q140 131 160 101T217 71Q235 71 254 79T291 102T325 135T355 172L377 160Q364 134 343 104T292 47T228 4T150 -14ZM289 452Q271 452 250 437T210 395T175 333T150 258Q180 266 210 282T263
319T302 365T318 417Q320 452 289 452Z" />
<glyph unicode="&#xeb;" glyph-name="edieresis" horiz-adv-x="424" d="M234 605Q208 605 190 623T171 667Q171 693 189 712T234 731Q260 731 278 712T297 667Q297 641 279 623T234 605ZM422 605Q396 605 378 623T360 667Q360 693 378 712T422 731Q448 731 467
712T486 667Q486 641 467 623T422 605ZM150 -14Q80 -14 47 29T15 143Q16 185 28 225T61 301T109 368T168 424Q210 457 256 477T348 498Q365 498 380 493T408 479T426 455T432 422Q431 386 405 355T338 300T247 258T145 230Q142 212 142 193Q140 131 160 101T217
71Q235 71 254 79T291 102T325 135T355 172L377 160Q364 134 343 104T292 47T228 4T150 -14ZM289 452Q271 452 250 437T210 395T175 333T150 258Q180 266 210 282T263 319T302 365T318 417Q320 452 289 452Z" />
<glyph unicode="&#xec;" glyph-name="igrave" horiz-adv-x="282" d="M119 407Q106 416 81 418T31 415L34 431Q59 454 95 475T176 497Q192 497 205 492T228 473T239 439T233 386L152 92H156Q179 108 203 135T244 190L268 180Q249 142 225 107T173 46T119 4T68 -12Q42
-12 28 9T26 78L119 407ZM447 763L470 563H443L338 754V763H447Z" />
<glyph unicode="&#xed;" glyph-name="iacute" horiz-adv-x="282" d="M363 763V755L210 563H181L254 763H363ZM119 407Q106 416 81 418T31 415L34 431Q59 454 95 475T176 497Q192 497 205 492T228 473T239 439T233 386L152 92H156Q179 108 203 135T244 190L268
180Q249 142 225 107T173 46T119 4T68 -12Q42 -12 28 9T26 78L119 407Z" />
<glyph unicode="&#xee;" glyph-name="icircumflex" horiz-adv-x="282" d="M332 563L464 763H524L576 563H543L478 679L365 563H332ZM119 407Q106 416 81 418T31 415L34 431Q59 454 95 475T176 497Q192 497 205 492T228 473T239 439T233 386L152 92H156Q179 108
203 135T244 190L268 180Q249 142 225 107T173 46T119 4T68 -12Q42 -12 28 9T26 78L119 407Z" />
<glyph unicode="&#xef;" glyph-name="idieresis" horiz-adv-x="282" d="M135 606Q108 606 90 624T71 669Q71 696 89 715T135 734Q161 734 180 715T199 669Q199 643 180 625T135 606ZM306 606Q280 606 262 624T243 669Q243 696 261 715T306 734Q333 734 352 715T371
669Q371 643 352 625T306 606ZM118 407Q105 416 80 418T30 415L33 431Q58 454 94 475T175 497Q191 497 204 492T227 473T238 439T232 386L151 92H155Q178 108 202 135T243 190L267 180Q248 142 224 107T172 46T118 4T67 -12Q41 -12 27 9T25 78L118 407Z" />
<glyph unicode="&#xf0;" glyph-name="eth" horiz-adv-x="522" d="M136 577L277 643Q257 667 233 690T182 737L197 758Q278 719 338 671L474 735L488 704L366 647Q434 584 467 508T499 347Q497 275 475 210T414 95T320 16T196 -14Q154 -14 122 1T69 44T38 107T29
185Q31 242 52 297T112 397T202 468T317 496Q340 496 360 485Q342 555 298 615L149 546L136 577ZM198 14Q228 14 257 47T309 131T347 240T366 350Q369 403 358 435T317 468Q296 468 277 452T240 407T208 344T182 270T165 194T157 125Q155 75 163 45T198 14Z" />
<glyph unicode="&#xf1;" glyph-name="ntilde" horiz-adv-x="550" d="M118 408Q107 416 83 418T32 415L34 431Q46 443 61 454T93 475T129 491T167 497Q209 497 227 467T227 376L196 276H203Q227 319 254 359T312 430T373 479T438 497Q477 497 495 471T497 383L418
92H421Q444 108 467 135T511 190L533 180Q513 140 488 105T437 44T384 3T333 -12Q307 -12 293 9T291 78L374 370Q384 405 361 405Q342 405 314 378T255 305T196 201T150 83L128 10L18 -15L4 0L118 408ZM179 589L186 605Q203 645 222 667T263 699T310 705T363 690L396
676Q415 668 431 665T461 664T490 681T520 718L538 709L529 690Q509 648 490 624T449 591T404 585T351 601L318 615Q293 625 276 628T246 628T221 613T197 581L179 589Z" />
<glyph unicode="&#xf2;" glyph-name="ograve" horiz-adv-x="508" d="M309 468Q289 468 270 452T233 407T201 344T175 270T157 194T149 125Q147 75 155 45T192 14Q212 14 231 30T269 72T302 133T330 206T349 282T358 354Q359 375 358 395T351 432T335 458T309 468ZM319
496Q362 496 394 480T446 438T476 377T486 306Q486 252 466 196T408 93T315 16T188 -14Q145 -14 114 0T62 41T31 102T21 180Q21 231 40 286T97 388T190 465T319 496ZM323 763L346 563H319L214 754V763H323Z" />
<glyph unicode="&#xf3;" glyph-name="oacute" horiz-adv-x="508" d="M494 763V755L341 563H312L385 763H494ZM309 468Q289 468 270 452T233 407T201 344T175 270T157 194T149 125Q147 75 155 45T192 14Q212 14 231 30T269 72T302 133T330 206T349 282T358 354Q359
375 358 395T351 432T335 458T309 468ZM319 496Q362 496 394 480T446 438T476 377T486 306Q486 252 466 196T408 93T315 16T188 -14Q145 -14 114 0T62 41T31 102T21 180Q21 231 40 286T97 388T190 465T319 496Z" />
<glyph unicode="&#xf4;" glyph-name="ocircumflex" horiz-adv-x="508" d="M207 563L339 763H399L451 563H418L353 679L240 563H207ZM309 468Q289 468 270 452T233 407T201 344T175 270T157 194T149 125Q147 75 155 45T192 14Q212 14 231 30T269 72T302 133T330
206T349 282T358 354Q359 375 358 395T351 432T335 458T309 468ZM319 496Q362 496 394 480T446 438T476 377T486 306Q486 252 466 196T408 93T315 16T188 -14Q145 -14 114 0T62 41T31 102T21 180Q21 231 40 286T97 388T190 465T319 496Z" />
<glyph unicode="&#xf5;" glyph-name="otilde" horiz-adv-x="508" d="M309 468Q289 468 270 452T233 407T201 344T175 270T157 194T149 125Q147 75 155 45T192 14Q212 14 231 30T269 72T302 133T330 206T349 282T358 354Q359 375 358 395T351 432T335 458T309 468ZM319
496Q362 496 394 480T446 438T476 377T486 306Q486 252 466 196T408 93T315 16T188 -14Q145 -14 114 0T62 41T31 102T21 180Q21 231 40 286T97 388T190 465T319 496ZM167 589L174 605Q191 645 210 667T251 699T298 705T351 690L384 676Q403 668 419 665T449 664T478
681T508 718L526 709L517 690Q497 648 478 624T437 591T392 585T339 601L306 615Q281 625 264 628T234 628T209 613T185 581L167 589Z" />
<glyph unicode="&#xf6;" glyph-name="odieresis" horiz-adv-x="508" d="M258 605Q232 605 214 623T195 667Q195 693 213 712T258 731Q284 731 302 712T321 667Q321 641 303 623T258 605ZM446 605Q420 605 402 623T384 667Q384 693 402 712T446 731Q472 731 491
712T510 667Q510 641 491 623T446 605ZM309 468Q289 468 270 452T233 407T201 344T175 270T157 194T149 125Q147 75 155 45T192 14Q212 14 231 30T269 72T302 133T330 206T349 282T358 354Q359 375 358 395T351 432T335 458T309 468ZM319 496Q362 496 394 480T446
438T476 377T486 306Q486 252 466 196T408 93T315 16T188 -14Q145 -14 114 0T62 41T31 102T21 180Q21 231 40 286T97 388T190 465T319 496Z" />
<glyph unicode="&#xf7;" glyph-name="divide" horiz-adv-x="562" d="M37 221V264H511V221H37ZM274 334Q248 334 229 353T210 400Q210 425 229 444T274 464Q287 464 299 459T320 444T334 424T340 400Q340 373 320 354T274 334ZM273 21Q247 21 228 40T209 86Q209
112 228 131T273 151Q300 151 319 132T339 86Q339 60 320 41T273 21Z" />
<glyph unicode="&#xf8;" glyph-name="oslash" horiz-adv-x="508" d="M12 -50L74 32Q48 60 34 99T22 185Q25 239 45 294T104 394T196 467T320 496Q344 496 365 490T405 473L453 537H492L429 454Q459 426 474 386T488 303Q485 248 465 192T406 90T314 15T189 -14Q162
-14 139 -7T97 13L50 -50H12ZM146 78Q149 49 159 32T193 14Q224 14 254 48T308 134T347 248T363 366L146 78ZM309 468Q288 468 269 452T231 408T198 346T172 272T154 197T146 128L360 413Q355 438 343 453T309 468Z" />
<glyph unicode="&#xf9;" glyph-name="ugrave" horiz-adv-x="544" d="M111 408Q100 416 75 418T26 415L28 431Q40 443 55 454T89 475T127 491T169 497Q205 497 221 469T221 379L152 109Q148 93 152 88T163 82Q183 82 213 113T274 191T332 294T373 400L393 476L504
494L514 482L413 92H417Q439 108 462 135T505 190L527 180Q507 139 482 104T431 44T378 3T328 -12Q301 -12 288 8T290 79L341 245H336Q315 208 289 163T232 79T164 14T84 -13Q66 -13 52 -7T30 14T22 51T30 108L111 408ZM319 763L342 563H315L210 754V763H319Z"
/>
<glyph unicode="&#xfa;" glyph-name="uacute" horiz-adv-x="544" d="M486 763V755L333 563H304L377 763H486ZM111 408Q100 416 75 418T26 415L28 431Q40 443 55 454T89 475T127 491T169 497Q205 497 221 469T221 379L152 109Q148 93 152 88T163 82Q183 82 213
113T274 191T332 294T373 400L393 476L504 494L514 482L413 92H417Q439 108 462 135T505 190L527 180Q507 139 482 104T431 44T378 3T328 -12Q301 -12 288 8T290 79L341 245H336Q315 208 289 163T232 79T164 14T84 -13Q66 -13 52 -7T30 14T22 51T30 108L111 408Z"
/>
<glyph unicode="&#xfb;" glyph-name="ucircumflex" horiz-adv-x="544" d="M205 563L337 763H397L449 563H416L351 679L238 563H205ZM111 408Q100 416 75 418T26 415L28 431Q40 443 55 454T89 475T127 491T169 497Q205 497 221 469T221 379L152 109Q148 93 152
88T163 82Q183 82 213 113T274 191T332 294T373 400L393 476L504 494L514 482L413 92H417Q439 108 462 135T505 190L527 180Q507 139 482 104T431 44T378 3T328 -12Q301 -12 288 8T290 79L341 245H336Q315 208 289 163T232 79T164 14T84 -13Q66 -13 52 -7T30 14T22
51T30 108L111 408Z" />
<glyph unicode="&#xfc;" glyph-name="udieresis" horiz-adv-x="544" d="M250 605Q224 605 206 623T187 667Q187 693 205 712T250 731Q276 731 294 712T313 667Q313 641 295 623T250 605ZM438 605Q412 605 394 623T376 667Q376 693 394 712T438 731Q464 731 483
712T502 667Q502 641 483 623T438 605ZM111 408Q100 416 75 418T26 415L28 431Q40 443 55 454T89 475T127 491T169 497Q205 497 221 469T221 379L152 109Q148 93 152 88T163 82Q183 82 213 113T274 191T332 294T373 400L393 476L504 494L514 482L413 92H417Q439
108 462 135T505 190L527 180Q507 139 482 104T431 44T378 3T328 -12Q301 -12 288 8T290 79L341 245H336Q315 208 289 163T232 79T164 14T84 -13Q66 -13 52 -7T30 14T22 51T30 108L111 408Z" />
<glyph unicode="&#xfd;" glyph-name="yacute" horiz-adv-x="486" d="M12 271Q18 380 55 437T152 495Q177 495 198 481T236 435T263 355T274 239Q275 175 267 110T241 -6H248Q275 33 302 74T351 158T386 246T398 339Q398 374 385 410T349 476Q363 486 381 492T416
498Q438 498 456 482T476 417Q477 355 450 282T378 134T276 -9T158 -131T40 -217T-62 -249Q-94 -249 -116 -231T-139 -177Q-140 -150 -122 -129T-72 -108Q-43 -108 -25 -130T6 -195H10Q52 -176 80 -134T126 -39T151 74T159 186Q159 292 142 347T101 402Q81 402
66 369T36 271H12ZM465 763V755L312 563H283L356 763H465Z" />
<glyph unicode="&#xfe;" glyph-name="thorn" horiz-adv-x="516" d="M157 642L89 693L92 705L302 749L184 287H188Q212 330 240 368T299 435T359 480T419 497Q458 497 484 463T508 363Q507 325 496 283T464 198T414 117T348 48T269 1T178 -17Q165 -17 146 -14T114
-5L67 -185L196 -191L189 -229H-119L-113 -202L-47 -180L157 642ZM129 56Q138 39 152 27T191 14Q212 14 234 29T276 71T314 131T345 201T367 273T376 339Q378 374 369 389T345 404Q321 404 290 373T230 296T178 200T144 111L129 56Z" />
<glyph unicode="&#xff;" glyph-name="ydieresis" horiz-adv-x="486" d="M12 271Q18 380 55 437T152 495Q177 495 198 481T236 435T263 355T274 239Q275 175 267 110T241 -6H248Q275 33 302 74T351 158T386 246T398 339Q398 374 385 410T349 476Q363 486 381 492T416
498Q438 498 456 482T476 417Q477 355 450 282T378 134T276 -9T158 -131T40 -217T-62 -249Q-94 -249 -116 -231T-139 -177Q-140 -150 -122 -129T-72 -108Q-43 -108 -25 -130T6 -195H10Q52 -176 80 -134T126 -39T151 74T159 186Q159 292 142 347T101 402Q81 402
66 369T36 271H12ZM218 605Q192 605 174 623T155 667Q155 693 173 712T218 731Q244 731 262 712T281 667Q281 641 263 623T218 605ZM406 605Q380 605 362 623T344 667Q344 693 362 712T406 731Q432 731 451 712T470 667Q470 641 451 623T406 605Z" />
<glyph unicode="&#x100;" glyph-name="Amacron" horiz-adv-x="702" d="M-37 28L30 47L393 668L430 675L478 683L572 50L636 27L630 0H348L353 28L437 49L413 224H187L91 51L189 27L184 0H-43L-37 28ZM215 275H406L369 549H368L215 275ZM317 833H608L594 767H303L317 833Z" />
<glyph unicode="&#x101;" glyph-name="amacron" horiz-adv-x="544" d="M522 517L406 91H410Q433 107 456 134T499 190L523 180Q503 139 479 104T427 44T373 3T323 -12Q305 -12 295 -4T280 17T276 46T283 78L328 208H321Q300 174 274 135T218 63T156 7T91 -16Q55
-16 30 8T5 90Q5 136 20 183T60 274T120 358T191 425T268 471T345 488Q383 488 413 472L436 517H522ZM161 77Q180 77 208 105T266 177T323 273T365 372L381 421Q370 435 356 444T325 453Q304 453 282 438T240 398T201 340T168 270T146 196T136 124Q135 95 142 86T161
77ZM247 690H529L516 624H233L247 690Z" />
<glyph unicode="&#x102;" glyph-name="Abreve" horiz-adv-x="702" d="M-37 28L30 47L393 668L430 675L478 683L572 50L636 27L630 0H348L353 28L437 49L413 224H187L91 51L189 27L184 0H-43L-37 28ZM215 275H406L369 549H368L215 275ZM440 724Q407 724 384 735T347
765T327 810T321 865H350Q362 833 383 814T449 794Q491 794 517 813T563 865H589Q584 837 573 812T544 767T500 736T440 724Z" />
<glyph unicode="&#x103;" glyph-name="abreve" horiz-adv-x="544" d="M522 517L406 91H410Q433 107 456 134T499 190L523 180Q503 139 479 104T427 44T373 3T323 -12Q305 -12 295 -4T280 17T276 46T283 78L328 208H321Q300 174 274 135T218 63T156 7T91 -16Q55
-16 30 8T5 90Q5 136 20 183T60 274T120 358T191 425T268 471T345 488Q383 488 413 472L436 517H522ZM161 77Q180 77 208 105T266 177T323 273T365 372L381 421Q370 435 356 444T325 453Q304 453 282 438T240 398T201 340T168 270T146 196T136 124Q135 95 142 86T161
77ZM367 572Q310 572 283 615T263 746H287Q292 691 315 668T375 645Q415 645 442 671T490 746H513Q507 708 496 676T466 621T423 585T367 572Z" />
<glyph unicode="&#x104;" glyph-name="Aogonek" horiz-adv-x="702" d="M-37 28L30 47L393 668L430 675L478 683L572 50L636 27L630 0H459Q424 -20 402 -38T366 -72T347 -102T342 -129Q342 -149 353 -160T385 -172Q403 -172 421 -163T465 -127L481 -140Q452 -185
417 -217T336 -249Q295 -249 274 -226T253 -174Q253 -151 262 -131T294 -90T352 -42T441 20L413 224H187L91 51L189 27L184 0H-43L-37 28ZM215 275H406L369 549H368L215 275Z" />
<glyph unicode="&#x105;" glyph-name="aogonek" horiz-adv-x="544" d="M335 -11Q332 -12 330 -12H323Q305 -12 295 -4T280 17T276 46T283 78L328 208H321Q300 174 274 135T218 63T156 7T91 -16Q55 -16 30 8T5 89Q5 135 20 182T60 274T120 357T191 425T268 471T345
488Q383 488 413 472L436 517H522L406 91H410Q433 107 456 134T499 190L523 180Q503 139 480 106T421 38Q376 -7 349 -35T307 -81T287 -112T282 -136Q282 -150 292 -161T324 -172Q342 -172 359 -163T403 -127L420 -140Q391 -185 356 -217T275 -249Q233 -249 213
-226T192 -174Q192 -152 201 -133T229 -96T274 -58T336 -14L335 -11ZM161 77Q180 77 209 106T268 179T324 275T365 372L381 421Q370 435 356 444T325 453Q304 453 282 438T240 398T201 340T168 270T146 196T136 124Q135 95 142 86T161 77Z" />
<glyph unicode="&#x106;" glyph-name="Cacute" horiz-adv-x="716" d="M370 -17Q302 -17 244 2T144 58T78 149T54 275Q54 354 88 427T183 557T328 647T513 681Q573 681 622 664T711 625L683 441H659L625 592Q599 617 570 631T499 645Q449 645 398 620T304 545T235
422T208 255Q208 198 222 154T262 80T320 35T392 19Q430 19 460 30T513 58L620 228H646L592 28Q554 14 498 -1T370 -17ZM670 871V859L512 728H470L552 871H670Z" />
<glyph unicode="&#x107;" glyph-name="cacute" horiz-adv-x="426" d="M485 763V755L332 563H303L376 763H485ZM268 442Q245 442 224 416T187 348T160 256T149 158Q148 111 163 91T205 71Q224 71 244 81T283 108T322 147T359 194L381 181Q362 145 339 111T286 48T222
3T143 -14Q114 -14 90 -3T50 27T24 72T15 130Q16 210 54 289T174 430Q211 459 257 478T347 498Q365 498 381 492T410 477T430 455T437 429Q437 406 421 384T385 351Q356 388 325 415T268 442Z" />
<glyph unicode="&#x108;" glyph-name="Ccircumflex" horiz-adv-x="716" d="M337 728L479 871H564L643 728H602L509 802L382 728H337ZM370 -17Q302 -17 244 2T144 58T78 149T54 275Q54 354 88 427T183 557T328 647T513 681Q573 681 622 664T711 625L683 441H659L625
592Q599 617 570 631T499 645Q449 645 398 620T304 545T235 422T208 255Q208 198 222 154T262 80T320 35T392 19Q430 19 460 30T513 58L620 228H646L592 28Q554 14 498 -1T370 -17Z" />
<glyph unicode="&#x109;" glyph-name="ccircumflex" horiz-adv-x="426" d="M197 563L329 763H389L441 563H408L343 679L230 563H197ZM268 442Q245 442 224 416T187 348T160 256T149 158Q148 111 163 91T205 71Q224 71 244 81T283 108T322 147T359 194L381 181Q362
145 339 111T286 48T222 3T143 -14Q114 -14 90 -3T50 27T24 72T15 130Q16 210 54 289T174 430Q211 459 257 478T347 498Q365 498 381 492T410 477T430 455T437 429Q437 406 421 384T385 351Q356 388 325 415T268 442Z" />
<glyph unicode="&#x10a;" glyph-name="Cdotaccent" horiz-adv-x="716" d="M370 -17Q302 -17 244 2T144 58T78 149T54 275Q54 354 88 427T183 557T328 647T513 681Q573 681 622 664T711 625L683 441H659L625 592Q599 617 570 631T499 645Q449 645 398 620T304 545T235
422T208 255Q208 198 222 154T262 80T320 35T392 19Q430 19 460 30T513 58L620 228H646L592 28Q554 14 498 -1T370 -17ZM447 806Q447 834 467 854T515 874Q543 874 562 854T582 806Q582 779 563 759T515 739Q487 739 467 759T447 806Z" />
<glyph unicode="&#x10b;" glyph-name="cdotaccent" horiz-adv-x="426" d="M268 442Q245 442 224 416T187 348T160 256T149 158Q148 111 163 91T205 71Q224 71 244 81T283 108T322 147T359 194L381 181Q362 145 339 111T286 48T222 3T143 -14Q114 -14 90 -3T50
27T24 72T15 130Q16 210 54 289T174 430Q211 459 257 478T347 498Q365 498 381 492T410 477T430 455T437 429Q437 406 421 384T385 351Q356 388 325 415T268 442ZM275 667Q275 696 294 715T343 735Q371 735 390 716T410 667Q410 639 391 620T343 600Q314 600 295
619T275 667Z" />
<glyph unicode="&#x10c;" glyph-name="Ccaron" horiz-adv-x="716" d="M680 871L538 728H453L374 871H415L507 797L635 871H680ZM370 -17Q302 -17 244 2T144 58T78 149T54 275Q54 354 88 427T183 557T328 647T513 681Q573 681 622 664T711 625L683 441H659L625
592Q599 617 570 631T499 645Q449 645 398 620T304 545T235 422T208 255Q208 198 222 154T262 80T320 35T392 19Q430 19 460 30T513 58L620 228H646L592 28Q554 14 498 -1T370 -17Z" />
<glyph unicode="&#x10d;" glyph-name="ccaron" horiz-adv-x="426" d="M481 763L349 563H289L237 763H269L335 648L449 763H481ZM268 442Q245 442 224 416T187 348T160 256T149 158Q148 111 163 91T205 71Q224 71 244 81T283 108T322 147T359 194L381 181Q362 145
339 111T286 48T222 3T143 -14Q114 -14 90 -3T50 27T24 72T15 130Q16 210 54 289T174 430Q211 459 257 478T347 498Q365 498 381 492T410 477T430 455T437 429Q437 406 421 384T385 351Q356 388 325 415T268 442Z" />
<glyph unicode="&#x10e;" glyph-name="Dcaron" horiz-adv-x="743" d="M596 871L454 728H369L290 871H331L423 797L551 871H596ZM191 56Q207 46 229 40T280 34Q350 35 404 64T495 140T550 249T569 376Q569 442 550 490T497 570T414 618T307 636L191 56ZM-21 28L55
49L169 614L98 637L103 664L318 665Q411 666 484 647T609 591T687 501T715 381Q715 289 678 217T574 96T416 21T216 -3L-27 0L-21 28Z" />
<glyph unicode="&#x10f;" glyph-name="dcaron" horiz-adv-x="550" d="M584 525L639 728H740L739 721L607 525H584ZM328 496Q349 496 367 492T400 483L440 642L371 693L375 705L586 748L420 92H423Q446 108 469 135T512 190L535 180Q515 138 490 103T439 43T386
3T338 -12Q306 -12 295 12T296 77L335 202H330Q314 174 290 137T235 65T169 8T98 -16Q81 -16 64 -10T34 12T14 52T7 113Q9 182 37 250T111 373T212 462T328 496ZM385 427Q358 463 325 463Q291 463 259 432T200 353T158 245T139 131Q137 101 146 87T168 73Q186 73
215 101T275 172T332 268T371 369L385 427Z" />
<glyph unicode="&#x110;" glyph-name="Dcroat" horiz-adv-x="743" d="M-21 28L55 49L108 315H19L27 353H115L168 614L97 637L102 664L318 665Q411 665 484 646T609 591T687 501T715 381Q715 289 678 217T574 96T416 21T216 -3L-27 0L-21 28ZM242 315L191 56Q207
46 229 40T280 34Q350 35 404 64T495 140T550 249T569 376Q569 442 550 490T496 570T413 618T306 636L250 353H400L393 315H242Z" />
<glyph unicode="&#x111;" glyph-name="dcroat" horiz-adv-x="550" d="M262 595H429L444 655L371 693L375 705L586 748L547 595H618L609 559H538L420 92H423Q446 108 469 135T512 190L535 180Q515 138 490 103T439 43T386 3T338 -12Q306 -12 295 12T296 77L335
202H330Q314 174 290 137T235 65T169 8T98 -16Q81 -16 64 -10T34 12T14 52T7 113Q9 182 37 250T111 373T212 462T328 496Q350 496 367 493T400 483L420 559H253L262 595ZM385 426Q359 463 325 463Q291 463 259 432T200 353T158 245T139 131Q137 101 146 87T168
73Q186 73 215 101T275 172T332 268T371 369L385 426Z" />
<glyph unicode="&#x112;" glyph-name="Emacron" horiz-adv-x="602" d="M248 330L192 53Q200 47 214 42T253 37H401L522 214H552L487 0H-27L-21 28L55 49L169 614L98 637L103 664H529L602 666L572 473H544L507 628H305L255 367H368L419 461H447L402 229H371L360
330H248ZM259 833H550L536 767H245L259 833Z" />
<glyph unicode="&#x113;" glyph-name="emacron" horiz-adv-x="424" d="M150 -14Q80 -14 47 29T15 143Q16 185 28 225T61 301T109 368T168 424Q210 457 256 477T348 498Q365 498 380 493T408 479T426 455T432 422Q431 386 405 355T338 300T247 258T145 230Q142
212 142 193Q140 131 160 101T217 71Q235 71 254 79T291 102T325 135T355 172L377 160Q364 134 343 104T292 47T228 4T150 -14ZM289 452Q271 452 250 437T210 395T175 333T150 258Q180 266 210 282T263 319T302 365T318 417Q320 452 289 452ZM201 690H483L470 624H187L201
690Z" />
<glyph unicode="&#x114;" glyph-name="Ebreve" horiz-adv-x="602" d="M248 330L192 53Q200 47 214 42T253 37H401L522 214H552L487 0H-27L-21 28L55 49L169 614L98 637L103 664H529L602 666L572 473H544L507 628H305L255 367H368L419 461H447L402 229H371L360
330H248ZM387 724Q354 724 331 735T294 765T274 810T268 865H297Q309 833 330 814T396 794Q438 794 464 813T510 865H536Q531 837 520 812T491 767T447 736T387 724Z" />
<glyph unicode="&#x115;" glyph-name="ebreve" horiz-adv-x="424" d="M150 -14Q80 -14 47 29T15 143Q16 185 28 225T61 301T109 368T168 424Q210 457 256 477T348 498Q365 498 380 493T408 479T426 455T432 422Q431 386 405 355T338 300T247 258T145 230Q142 212
142 193Q140 131 160 101T217 71Q235 71 254 79T291 102T325 135T355 172L377 160Q364 134 343 104T292 47T228 4T150 -14ZM289 452Q271 452 250 437T210 395T175 333T150 258Q180 266 210 282T263 319T302 365T318 417Q320 452 289 452ZM318 572Q261 572 234 615T214
746H238Q243 691 266 668T326 645Q366 645 393 671T441 746H464Q458 708 447 676T417 621T374 585T318 572Z" />
<glyph unicode="&#x116;" glyph-name="Edotaccent" horiz-adv-x="602" d="M337 806Q337 834 357 854T405 874Q433 874 452 854T472 806Q472 779 453 759T405 739Q377 739 357 759T337 806ZM248 330L192 53Q200 47 214 42T253 37H401L522 214H552L487 0H-27L-21
28L55 49L169 614L98 637L103 664H529L602 666L572 473H544L507 628H305L255 367H368L419 461H447L402 229H371L360 330H248Z" />
<glyph unicode="&#x117;" glyph-name="edotaccent" horiz-adv-x="424" d="M150 -14Q80 -14 47 29T15 143Q16 185 28 225T61 301T109 368T168 424Q210 457 256 477T348 498Q365 498 380 493T408 479T426 455T432 422Q431 386 405 355T338 300T247 258T145 230Q142
212 142 193Q140 131 160 101T217 71Q235 71 254 79T291 102T325 135T355 172L377 160Q364 134 343 104T292 47T228 4T150 -14ZM289 452Q271 452 250 437T210 395T175 333T150 258Q180 266 210 282T263 319T302 365T318 417Q320 452 289 452ZM276 667Q276 696 295
715T344 735Q372 735 391 716T411 667Q411 639 392 620T344 600Q315 600 296 619T276 667Z" />
<glyph unicode="&#x118;" glyph-name="Eogonek" horiz-adv-x="602" d="M248 330L192 53Q200 47 214 42T253 37H401L522 214H552L487 0H407Q375 -29 354 -49T321 -85T305 -111T300 -135Q300 -150 310 -161T341 -172Q360 -172 377 -163T421 -127L437 -140Q409 -185
374 -217T293 -249Q252 -249 231 -226T210 -174Q210 -152 219 -133T248 -94T301 -52T379 0H-27L-21 28L55 49L169 614L98 637L103 664H529L602 666L572 473H544L507 628H305L255 367H368L419 461H447L402 229H371L360 330H248Z" />
<glyph unicode="&#x119;" glyph-name="eogonek" horiz-adv-x="424" d="M209 -4Q195 -9 181 -11T150 -14Q80 -14 47 29T15 143Q16 185 28 225T61 301T109 368T168 424Q210 457 256 477T348 498Q365 498 380 493T408 479T426 455T432 422Q431 386 405 355T338 300T247
258T145 230Q142 212 142 193Q140 131 160 101T217 71Q235 71 254 79T291 102T325 135T355 172L377 160Q364 134 340 100T281 31Q237 -12 210 -38T168 -82T148 -110T143 -134Q143 -151 153 -161T184 -172Q203 -172 220 -163T264 -127L280 -140Q252 -185 217 -217T136
-249Q95 -249 74 -226T53 -174Q53 -151 62 -132T90 -94T139 -55T210 -8L209 -4ZM289 452Q271 452 250 437T210 395T175 333T150 258Q180 266 210 282T263 319T302 365T318 417Q320 452 289 452Z" />
<glyph unicode="&#x11a;" glyph-name="Ecaron" horiz-adv-x="602" d="M576 871L434 728H349L270 871H311L403 797L531 871H576ZM248 330L192 53Q200 47 214 42T253 37H401L522 214H552L487 0H-27L-21 28L55 49L169 614L98 637L103 664H529L602 666L572 473H544L507
628H305L255 367H368L419 461H447L402 229H371L360 330H248Z" />
<glyph unicode="&#x11b;" glyph-name="ecaron" horiz-adv-x="424" d="M468 763L336 563H276L224 763H256L322 648L436 763H468ZM150 -14Q80 -14 47 29T15 143Q16 185 28 225T61 301T109 368T168 424Q210 457 256 477T348 498Q365 498 380 493T408 479T426 455T432
422Q431 386 405 355T338 300T247 258T145 230Q142 212 142 193Q140 131 160 101T217 71Q235 71 254 79T291 102T325 135T355 172L377 160Q364 134 343 104T292 47T228 4T150 -14ZM289 452Q271 452 250 437T210 395T175 333T150 258Q180 266 210 282T263 319T302
365T318 417Q320 452 289 452Z" />
<glyph unicode="&#x11c;" glyph-name="Gcircumflex" horiz-adv-x="738" d="M339 728L481 871H566L645 728H604L511 802L384 728H339ZM206 256Q206 199 219 155T256 80T310 35T377 19Q420 19 453 39T495 103L522 240L424 260L430 291H712L706 260L652 240L614 44Q589
34 561 23T500 3T431 -12T352 -18Q288 -18 234 4T139 65T77 160T54 280Q54 359 86 431T178 559T322 648T509 681Q574 681 622 664T714 627L681 441H656L622 599Q601 620 571 632T503 645Q453 645 400 620T304 546T234 424T206 256Z" />
<glyph unicode="&#x11d;" glyph-name="gcircumflex" horiz-adv-x="468" d="M174 563L306 763H366L418 563H385L320 679L207 563H174ZM274 495Q297 495 317 491T359 482L502 492L492 426L389 444L388 440Q399 429 408 404T415 349Q413 312 397 276T351 212T282
165T193 147Q175 147 159 150Q135 137 135 117Q135 107 141 101T164 87L322 20Q374 -2 392 -26T410 -80Q409 -116 386 -147T325 -200T235 -236T128 -249Q25 -249 -27 -219T-77 -141Q-75 -98 -28 -71T98 -27V-23L94 -22Q68 -12 50 8T32 59Q32 77 39 90T59 114T88
135T125 156V161Q87 178 65 212T45 291Q46 328 61 364T106 430T177 477T274 495ZM132 -37Q86 -51 60 -69T33 -120Q31 -161 71 -185T184 -210Q212 -210 236 -204T278 -189T307 -166T318 -139Q318 -125 306 -112T255 -84L132 -37ZM274 463Q252 463 231 442T193 387T164
313T152 236Q151 208 158 192T185 175Q207 175 229 197T268 253T296 328T309 407Q310 427 303 445T274 463Z" />
<glyph unicode="&#x11e;" glyph-name="Gbreve" horiz-adv-x="738" d="M497 724Q464 724 441 735T404 765T384 810T378 865H407Q419 833 440 814T506 794Q548 794 574 813T620 865H646Q641 837 630 812T601 767T557 736T497 724ZM206 256Q206 199 219 155T256 80T310
35T377 19Q420 19 453 39T495 103L522 240L424 260L430 291H712L706 260L652 240L614 44Q589 34 561 23T500 3T431 -12T352 -18Q288 -18 234 4T139 65T77 160T54 280Q54 359 86 431T178 559T322 648T509 681Q574 681 622 664T714 627L681 441H656L622 599Q601 620
571 632T503 645Q453 645 400 620T304 546T234 424T206 256Z" />
<glyph unicode="&#x11f;" glyph-name="gbreve" horiz-adv-x="468" d="M274 495Q297 495 317 491T359 482L502 492L492 426L389 444L388 440Q399 429 408 404T415 349Q413 312 397 276T351 212T282 165T193 147Q175 147 159 150Q135 137 135 117Q135 107 141 101T164
87L322 20Q374 -2 392 -26T410 -80Q409 -116 386 -147T325 -200T235 -236T128 -249Q25 -249 -27 -219T-77 -141Q-75 -98 -28 -71T98 -27V-23L94 -22Q68 -12 50 8T32 59Q32 77 39 90T59 114T88 135T125 156V161Q87 178 65 212T45 291Q46 328 61 364T106 430T177
477T274 495ZM132 -37Q86 -51 60 -69T33 -120Q31 -161 71 -185T184 -210Q212 -210 236 -204T278 -189T307 -166T318 -139Q318 -125 306 -112T255 -84L132 -37ZM274 463Q252 463 231 442T193 387T164 313T152 236Q151 208 158 192T185 175Q207 175 229 197T268 253T296
328T309 407Q310 427 303 445T274 463ZM302 572Q245 572 218 615T198 746H222Q227 691 250 668T310 645Q350 645 377 671T425 746H448Q442 708 431 676T401 621T358 585T302 572Z" />
<glyph unicode="&#x120;" glyph-name="Gdotaccent" horiz-adv-x="738" d="M447 806Q447 834 467 854T515 874Q543 874 562 854T582 806Q582 779 563 759T515 739Q487 739 467 759T447 806ZM206 256Q206 199 219 155T256 80T310 35T377 19Q420 19 453 39T495 103L522
240L424 260L430 291H712L706 260L652 240L614 44Q589 34 561 23T500 3T431 -12T352 -18Q288 -18 234 4T139 65T77 160T54 280Q54 359 86 431T178 559T322 648T509 681Q574 681 622 664T714 627L681 441H656L622 599Q601 620 571 632T503 645Q453 645 400 620T304
546T234 424T206 256Z" />
<glyph unicode="&#x121;" glyph-name="gdotaccent" horiz-adv-x="468" d="M274 495Q297 495 317 491T359 482L502 492L492 426L389 444L388 440Q399 429 408 404T415 349Q413 312 397 276T351 212T282 165T193 147Q175 147 159 150Q135 137 135 117Q135 107 141
101T164 87L322 20Q374 -2 392 -26T410 -80Q409 -116 386 -147T325 -200T235 -236T128 -249Q25 -249 -27 -219T-77 -141Q-75 -98 -28 -71T98 -27V-23L94 -22Q68 -12 50 8T32 59Q32 77 39 90T59 114T88 135T125 156V161Q87 178 65 212T45 291Q46 328 61 364T106
430T177 477T274 495ZM132 -37Q86 -51 60 -69T33 -120Q31 -161 71 -185T184 -210Q212 -210 236 -204T278 -189T307 -166T318 -139Q318 -125 306 -112T255 -84L132 -37ZM274 463Q252 463 231 442T193 387T164 313T152 236Q151 208 158 192T185 175Q207 175 229 197T268
253T296 328T309 407Q310 427 303 445T274 463ZM251 667Q251 696 270 715T319 735Q347 735 366 716T386 667Q386 639 367 620T319 600Q290 600 271 619T251 667Z" />
<glyph unicode="&#x122;" glyph-name="Gcommaaccent" horiz-adv-x="738" d="M225 -234Q279 -214 301 -196T323 -154Q323 -137 309 -125T272 -109V-105Q277 -82 296 -67T346 -52Q380 -52 400 -73T421 -124Q421 -173 372 -204T233 -257L225 -234ZM206 256Q206 199
219 155T256 80T310 35T377 19Q420 19 453 39T495 103L522 240L424 260L430 291H712L706 260L652 240L614 44Q589 34 561 23T500 3T431 -12T352 -18Q288 -18 234 4T139 65T77 160T54 280Q54 359 86 431T178 559T322 648T509 681Q574 681 622 664T714 627L681 441H656L622
599Q601 620 571 632T503 645Q453 645 400 620T304 546T234 424T206 256Z" />
<glyph unicode="&#x123;" glyph-name="gcommaaccent" horiz-adv-x="468" d="M444 779Q390 760 368 742T346 699Q346 682 360 670T397 654V651Q392 628 373 613T324 597Q289 597 269 618T248 669Q248 718 297 750T436 802L444 779ZM274 495Q297 495 317 491T359
482L502 492L492 426L389 444L388 440Q399 429 408 404T415 349Q413 312 397 276T351 212T282 165T193 147Q175 147 159 150Q135 137 135 117Q135 107 141 101T164 87L322 20Q374 -2 392 -26T410 -80Q409 -116 386 -147T325 -200T235 -236T128 -249Q25 -249 -27
-219T-77 -141Q-75 -98 -28 -71T98 -27V-23L94 -22Q68 -12 50 8T32 59Q32 77 39 90T59 114T88 135T125 156V161Q87 178 65 212T45 291Q46 328 61 364T106 430T177 477T274 495ZM132 -37Q86 -51 60 -69T33 -120Q31 -161 71 -185T184 -210Q212 -210 236 -204T278
-189T307 -166T318 -139Q318 -125 306 -112T255 -84L132 -37ZM274 463Q252 463 231 442T193 387T164 313T152 236Q151 208 158 192T185 175Q207 175 229 197T268 253T296 328T309 407Q310 427 303 445T274 463Z" />
<glyph unicode="&#x124;" glyph-name="Hcircumflex" horiz-adv-x="758" d="M394 28L475 49L530 326H245L191 49L262 27L257 0H-27L-21 28L55 49L168 614L97 637L102 664H387L381 636L302 614L253 366H538L587 615L515 637L520 664H805L799 636L722 615L610 49L680
27L675 0H389L394 28ZM314 728L456 871H541L620 728H579L486 802L359 728H314Z" />
<glyph unicode="&#x125;" glyph-name="hcircumflex" horiz-adv-x="538" d="M184 277H191Q213 318 240 357T298 428T360 478T426 497Q465 497 483 471T485 383L406 92H409Q432 108 455 135T499 190L521 180Q500 139 475 104T424 43T371 3T321 -12Q295 -12 281 9T279
78L362 370Q372 405 349 405Q331 405 302 378T243 305T184 202T138 83L117 10L9 -15L-5 0L159 642L97 693L101 705L303 749L184 277ZM219 764L361 907H446L525 764H484L391 838L264 764H219Z" />
<glyph unicode="&#x126;" glyph-name="Hbar" horiz-adv-x="758" d="M394 28L475 49L530 326H246L191 49L262 27L257 0H-27L-21 28L55 49L142 483H48L56 522H149L168 614L98 637L103 664H388L382 636L303 614L285 522H569L587 615L515 637L520 664H805L799 636L722
615L703 522H799L791 483H696L610 49L680 27L675 0H389L394 28ZM254 366H538L561 483H277L254 366Z" />
<glyph unicode="&#x127;" glyph-name="hbar" horiz-adv-x="538" d="M76 595H146L162 655L97 693L101 705L303 749L264 595H430L421 559H255L184 277H191Q213 318 240 357T298 428T360 478T425 497Q465 497 483 471T485 383L406 92H409Q432 108 455 135T499 190L522
180Q501 139 476 104T424 43T371 3T321 -12Q295 -12 281 9T279 78L362 370Q372 405 349 405Q331 405 302 378T242 305T183 202T138 83L117 10L9 -15L-5 -1L137 559H67L76 595Z" />
<glyph unicode="&#x128;" glyph-name="Itilde" horiz-adv-x="339" d="M-21 28L55 49L169 614L98 637L103 664H385L380 636L303 615L190 49L260 27L255 0H-27L-21 28ZM349 755L356 770Q374 808 392 830T432 862T477 869T532 856L565 844Q586 836 603 833T634 833T662
848T691 883L708 875L699 856Q680 815 662 792T624 759T579 751T523 765L489 777Q464 786 446 790T415 791T390 778T367 747L349 755Z" />
<glyph unicode="&#x129;" glyph-name="itilde" horiz-adv-x="282" d="M65 588L73 604Q92 641 111 663T150 695T194 701T243 685L253 680Q287 663 313 670T369 721L388 712L378 693Q357 654 338 630T299 596T256 587T206 605L195 611Q154 633 132 625T84 578L65
588ZM118 407Q105 416 80 418T30 415L33 431Q58 454 94 475T175 497Q191 497 204 492T227 473T238 439T232 386L151 92H155Q178 108 202 135T243 190L267 180Q248 142 224 107T172 46T118 4T67 -12Q41 -12 27 9T25 78L118 407Z" />
<glyph unicode="&#x12a;" glyph-name="Imacron" horiz-adv-x="339" d="M145 833H412L398 767H132L145 833ZM-21 28L55 49L169 614L98 637L103 664H385L380 636L303 615L190 49L260 27L255 0H-27L-21 28Z" />
<glyph unicode="&#x12b;" glyph-name="imacron" horiz-adv-x="282" d="M99 690H342L329 625H86L99 690ZM118 407Q105 416 80 418T30 415L33 431Q58 454 94 475T175 497Q191 497 204 492T227 473T238 439T232 386L151 92H155Q178 108 202 135T243 190L267 180Q248
142 224 107T172 46T118 4T67 -12Q41 -12 27 9T25 78L118 407Z" />
<glyph unicode="&#x12c;" glyph-name="Ibreve" horiz-adv-x="339" d="M-21 28L55 49L169 614L98 637L103 664H385L380 636L303 615L190 49L260 27L255 0H-27L-21 28ZM515 724Q482 724 459 735T422 765T402 810T396 865H425Q437 833 458 814T524 794Q566 794 592
813T638 865H664Q659 837 648 812T619 767T575 736T515 724Z" />
<glyph unicode="&#x12d;" glyph-name="ibreve" horiz-adv-x="282" d="M119 407Q106 416 81 418T31 415L34 431Q59 454 95 475T176 497Q192 497 205 492T228 473T239 439T233 386L152 92H156Q179 108 203 135T244 190L268 180Q249 142 225 107T173 46T119 4T68
-12Q42 -12 28 9T26 78L119 407ZM461 572Q404 572 377 615T357 746H381Q386 691 409 668T469 645Q509 645 536 671T584 746H607Q601 708 590 676T560 621T517 585T461 572Z" />
<glyph unicode="&#x12e;" glyph-name="Iogonek" horiz-adv-x="339" d="M-21 28L55 49L169 614L98 637L103 664H385L380 636L303 615L190 49L260 27L255 0H131Q110 -29 96 -49T74 -84T63 -110T60 -133Q60 -151 71 -161T100 -172Q118 -172 136 -163T181 -127L197
-140Q169 -185 134 -217T53 -249Q12 -249 -9 -226T-30 -173Q-30 -151 -22 -132T4 -94T46 -52T104 0H-27L-21 28Z" />
<glyph unicode="&#x12f;" glyph-name="iogonek" horiz-adv-x="282" d="M117 407Q105 416 80 418T30 415L32 431Q57 454 94 475T175 497Q191 497 205 492T227 473T238 439T231 386L151 92H155Q177 108 201 135T243 190L267 180Q247 140 223 106T162 35Q118 -9 92
-36T51 -82T32 -112T27 -136Q27 -150 37 -161T68 -172Q86 -172 104 -163T148 -127L164 -140Q135 -185 100 -217T19 -249Q-22 -249 -43 -226T-64 -174Q-64 -152 -55 -133T-27 -96T18 -58T80 -14L79 -12H69Q41 -12 27 9T25 78L117 407ZM214 599Q185 599 166 618T147
667Q147 695 166 715T215 735Q244 735 263 715T283 667Q283 638 263 619T214 599Z" />
<glyph unicode="&#x130;" glyph-name="Idotaccent" horiz-adv-x="339" d="M-21 28L55 49L169 614L98 637L103 664H385L380 636L303 615L190 49L260 27L255 0H-27L-21 28ZM451 806Q451 834 471 854T519 874Q547 874 566 854T586 806Q586 779 567 759T519 739Q491
739 471 759T451 806Z" />
<glyph unicode="&#x131;" glyph-name="dotlessi" horiz-adv-x="283" d="M119 407Q106 416 81 418T31 415L34 431Q59 454 95 475T176 497Q192 497 205 492T228 473T239 439T233 386L152 92H156Q179 108 203 135T244 190L268 180Q249 142 225 107T173 46T119 4T68
-12Q42 -12 28 9T26 78L119 407Z" />
<glyph unicode="&#x132;" glyph-name="IJ" horiz-adv-x="673" d="M-21 28L55 49L169 614L98 637L103 664H385L380 636L303 615L190 49L260 27L255 0H-27L-21 28ZM526 57Q514 -2 494 -48T438 -127T352 -183T227 -216L222 -194Q265 -173 293 -149T340 -95T370 -31T390
46L502 615L422 637L427 664H719L714 636L637 615L526 57Z" />
<glyph unicode="&#x133;" glyph-name="ij" horiz-adv-x="530" d="M117 407Q105 416 80 418T30 415L32 431Q57 454 94 475T175 497Q191 497 205 492T227 473T238 439T231 386L151 92H155Q177 108 201 135T243 190L267 180Q248 142 224 107T172 46T118 4T67 -12Q41
-12 26 9T25 78L117 407ZM145 667Q145 695 165 715T213 735Q242 735 261 715T281 667Q281 638 261 619T212 599Q183 599 164 618T145 667ZM384 406Q370 416 345 418T296 415L297 431Q322 454 358 475T439 497Q455 497 469 491T492 472T503 436T497 380L415 44Q400
-17 373 -71T309 -165T231 -228T143 -252Q130 -252 116 -248T90 -235T70 -215T62 -188Q61 -159 80 -141T126 -114Q165 -202 200 -202Q213 -202 223 -187T244 -143T263 -75T285 11L384 406ZM410 667Q410 695 429 715T478 735Q507 735 526 715T546 667Q546 638 526
619T477 599Q448 599 429 618T410 667Z" />
<glyph unicode="&#x134;" glyph-name="Jcircumflex" horiz-adv-x="348" d="M365 728L507 871H592L671 728H630L537 802L410 728H365ZM201 57Q189 -2 169 -48T113 -127T27 -183T-98 -216L-103 -194Q-60 -173 -32 -149T15 -95T45 -31T65 46L177 615L97 637L102 664H394L389
636L312 615L201 57Z" />
<glyph unicode="&#x135;" glyph-name="jcircumflex" horiz-adv-x="266" d="M119 406Q105 416 80 418T31 415L32 431Q57 454 93 475T174 497Q190 497 204 491T227 472T238 436T232 380L150 44Q135 -17 108 -71T44 -165T-34 -228T-122 -252Q-135 -252 -149 -248T-175
-235T-195 -215T-203 -188Q-204 -159 -185 -141T-139 -114Q-100 -202 -65 -202Q-52 -202 -42 -187T-21 -143T-2 -75T20 11L119 406ZM326 563L458 763H518L570 563H537L472 679L359 563H326Z" />
<glyph unicode="&#x136;" glyph-name="Kcommaaccent" horiz-adv-x="688" d="M199 -234Q253 -214 275 -196T297 -154Q297 -137 283 -125T246 -109V-105Q251 -82 270 -67T320 -52Q354 -52 374 -73T395 -124Q395 -173 346 -204T207 -257L199 -234ZM-21 28L55 49L168
614L98 637L103 664H391L386 636L303 614L191 50L262 27L258 0H-27L-21 28ZM642 0Q589 -5 551 -6T485 2T432 33T383 96T328 199T255 350V351L580 614L501 635L505 664H719L714 635L639 614L371 400Q412 316 442 257T496 158T538 95T573 59T607 39T647 27L642 0Z"
/>
<glyph unicode="&#x137;" glyph-name="kcommaaccent" horiz-adv-x="507" d="M325 -234Q379 -214 401 -196T423 -154Q423 -137 409 -125T372 -109V-105Q377 -82 396 -67T446 -52Q480 -52 500 -73T521 -124Q521 -173 472 -204T333 -257L325 -234ZM401 -41Q380 -41
365 -38T337 -27T310 -5T279 32L168 176Q144 124 130 69L115 9L9 -15L-5 0L159 642L96 693L101 705L303 749L183 279H190Q212 320 238 359T294 429T355 478T421 497Q455 497 476 475T498 415Q498 354 441 303T281 206L464 -14V-24Q456 -29 440 -35T401 -41ZM365
410Q346 410 322 392T271 342T219 270T172 184Q281 229 339 279T398 372Q398 410 365 410Z" />
<glyph unicode="&#x138;" glyph-name="kgreenlandic" horiz-adv-x="519" d="M118 408Q107 416 83 418T32 415L34 431Q46 443 61 454T93 475T129 491T167 497Q209 497 227 467T227 376L194 276H200Q222 317 248 356T304 427T366 478T433 497Q467 497 488 475T510
415Q510 353 453 302T294 205L476 -14V-24Q468 -29 452 -35T413 -41Q392 -41 377 -38T349 -27T322 -5T291 32L181 177Q168 150 159 123T142 69L127 9L18 -15L5 0L118 408ZM377 410Q358 410 334 392T283 342T231 270T184 184Q293 229 351 279T410 372Q410 410 377
410Z" />
<glyph unicode="&#x139;" glyph-name="Lacute" horiz-adv-x="572" d="M435 871V859L277 728H235L317 871H435ZM191 52Q200 46 214 42T252 37H376L510 240H543L468 0H-27L-21 28L55 49L168 614L98 637L103 664H391L386 636L303 614L191 52Z" />
<glyph unicode="&#x13a;" glyph-name="lacute" horiz-adv-x="269" d="M680 907V895L522 764H480L562 907H680ZM253 180Q233 138 208 103T156 42T102 2T53 -12Q26 -12 13 9T11 78L155 642L86 693L90 705L300 749L137 92H141Q166 110 188 135T230 190L253 180Z" />
<glyph unicode="&#x13b;" glyph-name="Lcommaaccent" horiz-adv-x="572" d="M121 -234Q175 -214 197 -196T219 -154Q219 -137 205 -125T168 -109V-105Q173 -82 192 -67T242 -52Q276 -52 296 -73T317 -124Q317 -173 268 -204T129 -257L121 -234ZM191 52Q200 46
214 42T252 37H376L510 240H543L468 0H-27L-21 28L55 49L168 614L98 637L103 664H391L386 636L303 614L191 52Z" />
<glyph unicode="&#x13c;" glyph-name="lcommaaccent" horiz-adv-x="269" d="M-73 -234Q-19 -214 3 -196T25 -154Q25 -137 11 -125T-26 -109V-105Q-21 -82 -2 -67T48 -52Q82 -52 102 -73T123 -124Q123 -173 74 -204T-65 -257L-73 -234ZM253 180Q233 138 208 103T156
42T102 2T53 -12Q26 -12 13 9T11 78L155 642L86 693L90 705L300 749L137 92H141Q166 110 188 135T230 190L253 180Z" />
<glyph unicode="&#x13d;" glyph-name="Lcaron" horiz-adv-x="572" d="M457 525L512 728H613L612 721L480 525H457ZM191 52Q200 46 214 42T252 37H376L510 240H543L468 0H-27L-21 28L55 49L168 614L98 637L103 664H391L386 636L303 614L191 52Z" />
<glyph unicode="&#x13e;" glyph-name="lcaron" horiz-adv-x="269" d="M299 525L354 728H455L454 721L322 525H299ZM253 180Q233 138 208 103T156 42T102 2T53 -12Q26 -12 13 9T11 78L155 642L86 693L90 705L300 749L137 92H141Q166 110 188 135T230 190L253 180Z" />
<glyph unicode="&#x13f;" glyph-name="Ldot" horiz-adv-x="573" d="M191 52Q200 46 214 42T252 37H376L505 218H537L468 0H-27L-21 28L55 49L168 614L98 637L103 664H391L386 636L303 614L191 52ZM497 294Q468 294 447 315T426 365Q426 380 431 393T447 415T470
431T497 437Q527 437 548 416T570 365Q570 336 549 315T497 294Z" />
<glyph unicode="&#x140;" glyph-name="ldot" horiz-adv-x="355" d="M322 306Q296 306 276 326T256 372Q256 399 276 418T322 438Q350 438 369 419T389 372Q389 346 370 326T322 306ZM252 180Q232 138 207 103T155 42T101 2T52 -12Q25 -12 12 9T10 78L154 642L85
693L89 705L299 749L136 92H140Q165 110 187 135T229 190L252 180Z" />
<glyph unicode="&#x141;" glyph-name="Lslash" horiz-adv-x="572" d="M23 288L108 312L169 614L98 637L103 664H391L386 636L303 614L251 352L461 411L453 371L243 312L192 53Q200 46 214 42T253 37H376L510 240H543L468 0H-27L-21 28L55 49L100 272L15 249L23 288Z" />
<glyph unicode="&#x142;" glyph-name="lslash" horiz-adv-x="269" d="M6 331L84 365L155 642L85 693L89 705L299 749L218 424L305 463L295 421L208 382L136 92H140Q166 110 187 135T229 190L252 180Q232 138 207 103T155 42T102 2T53 -12Q25 -12 12 9T11 78L73
322L-4 288L6 331Z" />
<glyph unicode="&#x143;" glyph-name="Nacute" horiz-adv-x="704" d="M615 871V859L457 728H415L497 871H615ZM497 -7L194 536L106 51L192 27L187 0H-27L-21 28L56 49L162 585Q150 602 134 613T104 629L87 637L92 664H277L542 191L617 613L532 637L537 664H750L745
636L668 615L572 131L549 -7H497Z" />
<glyph unicode="&#x144;" glyph-name="nacute" horiz-adv-x="550" d="M506 763V755L353 563H324L397 763H506ZM118 408Q107 416 83 418T32 415L34 431Q46 443 61 454T93 475T129 491T167 497Q209 497 227 467T227 376L196 276H203Q227 319 254 359T312 430T373
479T438 497Q477 497 495 471T497 383L418 92H421Q444 108 467 135T511 190L533 180Q513 140 488 105T437 44T384 3T333 -12Q307 -12 293 9T291 78L374 370Q384 405 361 405Q342 405 314 378T255 305T196 201T150 83L128 10L18 -15L4 0L118 408Z" />
<glyph unicode="&#x145;" glyph-name="Ncommaaccent" horiz-adv-x="704" d="M177 -234Q231 -214 253 -196T275 -154Q275 -137 261 -125T224 -109V-105Q229 -82 248 -67T298 -52Q332 -52 352 -73T373 -124Q373 -173 324 -204T185 -257L177 -234ZM497 -7L194 536L106
51L192 27L187 0H-27L-21 28L56 49L162 585Q150 602 134 613T104 629L87 637L92 664H277L542 191L617 613L532 637L537 664H750L745 636L668 615L572 131L549 -7H497Z" />
<glyph unicode="&#x146;" glyph-name="ncommaaccent" horiz-adv-x="550" d="M336 -234Q390 -214 412 -196T434 -154Q434 -137 420 -125T383 -109V-105Q388 -82 407 -67T457 -52Q491 -52 511 -73T532 -124Q532 -173 483 -204T344 -257L336 -234ZM118 408Q107 416
83 418T32 415L34 431Q46 443 61 454T93 475T129 491T167 497Q209 497 227 467T227 376L196 276H203Q227 319 254 359T312 430T373 479T438 497Q477 497 495 471T497 383L418 92H421Q444 108 467 135T511 190L533 180Q513 140 488 105T437 44T384 3T333 -12Q307
-12 293 9T291 78L374 370Q384 405 361 405Q342 405 314 378T255 305T196 201T150 83L128 10L18 -15L4 0L118 408Z" />
<glyph unicode="&#x147;" glyph-name="Ncaron" horiz-adv-x="704" d="M625 871L483 728H398L319 871H360L452 797L580 871H625ZM497 -7L194 536L106 51L192 27L187 0H-27L-21 28L56 49L162 585Q150 602 134 613T104 629L87 637L92 664H277L542 191L617 613L532
637L537 664H750L745 636L668 615L572 131L549 -7H497Z" />
<glyph unicode="&#x148;" glyph-name="ncaron" horiz-adv-x="550" d="M502 763L370 563H310L258 763H290L356 648L470 763H502ZM118 408Q107 416 83 418T32 415L34 431Q46 443 61 454T93 475T129 491T167 497Q209 497 227 467T227 376L196 276H203Q227 319 254
359T312 430T373 479T438 497Q477 497 495 471T497 383L418 92H421Q444 108 467 135T511 190L533 180Q513 140 488 105T437 44T384 3T333 -12Q307 -12 293 9T291 78L374 370Q384 405 361 405Q342 405 314 378T255 305T196 201T150 83L128 10L18 -15L4 0L118 408Z"
/>
<glyph unicode="&#x149;" glyph-name="napostrophe" horiz-adv-x="550" d="M27 560Q81 580 103 598T125 640Q125 657 111 669T74 685V689Q79 712 98 727T148 742Q182 742 202 721T223 670Q223 621 174 590T35 537L27 560ZM118 408Q107 416 83 418T32 415L34 431Q46
443 61 454T93 475T129 491T167 497Q209 497 227 467T227 376L196 276H203Q227 319 254 359T312 430T373 479T438 497Q477 497 495 471T497 383L418 92H421Q444 108 467 135T511 190L533 180Q513 140 488 105T437 44T384 3T333 -12Q307 -12 293 9T291 78L374 370Q384
405 361 405Q342 405 314 378T255 305T196 201T150 83L128 10L18 -15L4 0L118 408Z" />
<glyph unicode="&#x14a;" glyph-name="Eng" horiz-adv-x="704" d="M272 -190Q322 -172 357 -150T416 -102T454 -43T478 27L194 535L106 51L192 27L187 0H-27L-21 28L56 49L162 585Q150 602 134 613T104 629L87 637L92 664H277L542 191L617 613L532 637L537 664H750L745
636L668 615L561 80Q547 8 526 -42T472 -127T392 -181T277 -211L272 -190Z" />
<glyph unicode="&#x14b;" glyph-name="eng" horiz-adv-x="530" d="M374 370Q384 405 361 405Q342 405 314 378T255 305T196 201T150 83L128 10L18 -15L4 0L118 408Q107 416 83 418T32 415L34 431Q46 443 61 454T93 475T129 491T167 497Q209 497 227 467T227 376L196
276H203Q227 319 254 359T312 430T373 479T438 497Q477 497 495 471T497 383L411 44Q395 -17 367 -71T302 -165T222 -228T134 -252Q120 -252 106 -248T81 -235T62 -215T54 -187Q54 -158 75 -140T119 -114Q157 -202 194 -202Q206 -202 216 -187T237 -143T258 -76T281
11L374 370Z" />
<glyph unicode="&#x14c;" glyph-name="Omacron" horiz-adv-x="772" d="M339 833H630L616 767H325L339 833ZM455 682Q509 682 560 663T652 604T716 508T741 375Q741 305 713 235T633 108T505 16T336 -20Q283 -20 233 -1T143 57T79 153T54 286Q54 357 82 428T162
555T288 647T455 682ZM594 443Q594 480 586 516T561 582T518 630T454 648Q415 648 381 630T319 582T269 510T231 421T208 324T200 226Q200 187 207 149T232 80T275 32T339 13Q400 13 447 52T527 154T577 292T594 443Z" />
<glyph unicode="&#x14d;" glyph-name="omacron" horiz-adv-x="508" d="M214 690H496L483 624H200L214 690ZM309 468Q289 468 270 452T233 407T201 344T175 270T157 194T149 125Q147 75 155 45T192 14Q212 14 231 30T269 72T302 133T330 206T349 282T358 354Q359
375 358 395T351 432T335 458T309 468ZM319 496Q362 496 394 480T446 438T476 377T486 306Q486 252 466 196T408 93T315 16T188 -14Q145 -14 114 0T62 41T31 102T21 180Q21 231 40 286T97 388T190 465T319 496Z" />
<glyph unicode="&#x14e;" glyph-name="Obreve" horiz-adv-x="772" d="M473 724Q440 724 417 735T380 765T360 810T354 865H383Q395 833 416 814T482 794Q524 794 550 813T596 865H622Q617 837 606 812T577 767T533 736T473 724ZM455 682Q509 682 560 663T652 604T716
508T741 375Q741 305 713 235T633 108T505 16T336 -20Q283 -20 233 -1T143 57T79 153T54 286Q54 357 82 428T162 555T288 647T455 682ZM594 443Q594 480 586 516T561 582T518 630T454 648Q415 648 381 630T319 582T269 510T231 421T208 324T200 226Q200 187 207
149T232 80T275 32T339 13Q400 13 447 52T527 154T577 292T594 443Z" />
<glyph unicode="&#x14f;" glyph-name="obreve" horiz-adv-x="508" d="M309 468Q289 468 270 452T233 407T201 344T175 270T157 194T149 125Q147 75 155 45T192 14Q212 14 231 30T269 72T302 133T330 206T349 282T358 354Q359 375 358 395T351 432T335 458T309
468ZM319 496Q362 496 394 480T446 438T476 377T486 306Q486 252 466 196T408 93T315 16T188 -14Q145 -14 114 0T62 41T31 102T21 180Q21 231 40 286T97 388T190 465T319 496ZM335 572Q278 572 251 615T231 746H255Q260 691 283 668T343 645Q383 645 410 671T458
746H481Q475 708 464 676T434 621T391 585T335 572Z" />
<glyph unicode="&#x150;" glyph-name="Ohungarumlaut" horiz-adv-x="772" d="M678 860L552 728H510L576 871H678V860ZM511 860L385 728H344L409 871H511V860ZM455 682Q509 682 560 663T652 604T716 508T741 375Q741 305 713 235T633 108T505 16T336 -20Q283 -20
233 -1T143 57T79 153T54 286Q54 357 82 428T162 555T288 647T455 682ZM594 443Q594 480 586 516T561 582T518 630T454 648Q415 648 381 630T319 582T269 510T231 421T208 324T200 226Q200 187 207 149T232 80T275 32T339 13Q400 13 447 52T527 154T577 292T594
443Z" />
<glyph unicode="&#x151;" glyph-name="ohungarumlaut" horiz-adv-x="508" d="M392 763V754L259 563H231L294 763H392ZM544 763V754L412 563H384L447 763H544ZM309 468Q289 468 270 452T233 407T201 344T175 270T157 194T149 125Q147 75 155 45T192 14Q212 14 231
30T269 72T302 133T330 206T349 282T358 354Q359 375 358 395T351 432T335 458T309 468ZM319 496Q362 496 394 480T446 438T476 377T486 306Q486 252 466 196T408 93T315 16T188 -14Q145 -14 114 0T62 41T31 102T21 180Q21 231 40 286T97 388T190 465T319 496Z"
/>
<glyph unicode="&#x152;" glyph-name="OE" horiz-adv-x="1006" d="M595 0Q546 0 516 0T460 -1T407 -3T338 -4Q272 -5 220 15T130 74T74 165T54 285Q54 367 86 438T174 560T304 641T461 671Q492 671 522 670T590 668T678 665T803 664H934L1006 666L976 473H947L911
627H713L662 367H770L823 461H851L806 229H775L764 330H654L599 54Q607 48 621 43T660 38H804L926 214H956L891 0H595ZM576 606Q567 613 538 626T460 640Q400 640 352 604T270 508T218 375T200 226Q200 187 207 151T231 86T276 41T349 24Q405 24 440 60T489 165L576
606Z" />
<glyph unicode="&#x153;" glyph-name="oe" horiz-adv-x="748" d="M483 -14Q441 -14 413 7T370 66Q337 30 292 8T189 -14Q146 -14 114 1T61 44T31 107T22 185Q25 236 44 291T101 391T192 466T320 496Q383 496 416 465T460 389Q502 437 555 467T670 498Q708 498
733 479T758 422Q757 386 731 355T664 300T572 258T471 230Q469 221 469 212T468 193Q463 136 484 103T541 70Q559 70 578 79T615 102T650 135T680 172L702 160Q689 134 668 104T619 47T556 4T483 -14ZM310 468Q290 468 271 452T234 407T202 344T176 270T158 194T150
125Q148 75 156 45T193 14Q213 14 232 30T270 72T303 133T331 206T350 282T359 354Q360 375 359 395T352 432T336 458T310 468ZM615 452Q597 452 576 437T536 395T501 333T476 258Q506 266 536 282T589 319T627 365T643 417Q645 452 615 452Z" />
<glyph unicode="&#x154;" glyph-name="Racute" horiz-adv-x="684" d="M559 871V859L401 728H359L441 871H559ZM-21 28L55 49L168 614L98 637L103 664L349 665Q407 665 454 655T536 626T588 578T606 514Q606 477 591 449T549 399T490 364T420 341Q451 271 473 222T513
140T545 87T574 56T605 38T644 27L639 0Q587 -5 551 -6T489 1T442 28T401 82T358 172T302 305H238L188 50L274 27L269 0H-27L-21 28ZM245 337Q358 341 413 387T469 504Q469 532 459 556T429 599T378 627T304 637L245 337Z" />
<glyph unicode="&#x155;" glyph-name="racute" horiz-adv-x="423" d="M461 763V755L308 563H279L352 763H461ZM115 409Q99 419 76 420T29 416L31 432Q57 458 93 477T168 497Q186 497 200 491T223 471T232 436T224 387L169 222H180Q216 300 245 353T298 438T345
484T391 498Q419 498 434 483T449 444Q449 423 440 405T418 372T388 348T357 332H335Q349 359 349 377T336 395Q322 395 299 367T249 294T197 197T155 92L127 10L18 -15L4 0L115 409Z" />
<glyph unicode="&#x156;" glyph-name="Rcommaaccent" horiz-adv-x="684" d="M206 -234Q260 -214 282 -196T304 -154Q304 -137 290 -125T253 -109V-105Q258 -82 277 -67T327 -52Q361 -52 381 -73T402 -124Q402 -173 353 -204T214 -257L206 -234ZM-21 28L55 49L168
614L98 637L103 664L349 665Q407 665 454 655T536 626T588 578T606 514Q606 477 591 449T549 399T490 364T420 341Q451 271 473 222T513 140T545 87T574 56T605 38T644 27L639 0Q587 -5 551 -6T489 1T442 28T401 82T358 172T302 305H238L188 50L274 27L269 0H-27L-21
28ZM245 337Q358 341 413 387T469 504Q469 532 459 556T429 599T378 627T304 637L245 337Z" />
<glyph unicode="&#x157;" glyph-name="rcommaaccent" horiz-adv-x="423" d="M-70 -234Q-16 -214 6 -196T28 -154Q28 -137 14 -125T-23 -109V-105Q-18 -82 1 -67T51 -52Q85 -52 105 -73T126 -124Q126 -173 77 -204T-62 -257L-70 -234ZM115 409Q99 419 76 420T29
416L31 432Q57 458 93 477T168 497Q186 497 200 491T223 471T232 436T224 387L169 222H180Q216 300 245 353T298 438T345 484T391 498Q419 498 434 483T449 444Q449 423 440 405T418 372T388 348T357 332H335Q349 359 349 377T336 395Q322 395 299 367T249 294T197
197T155 92L127 10L18 -15L4 0L115 409Z" />
<glyph unicode="&#x158;" glyph-name="Rcaron" horiz-adv-x="684" d="M568 871L426 728H341L262 871H303L395 797L523 871H568ZM-21 28L55 49L168 614L98 637L103 664L349 665Q407 665 454 655T536 626T588 578T606 514Q606 477 591 449T549 399T490 364T420 341Q451
271 473 222T513 140T545 87T574 56T605 38T644 27L639 0Q587 -5 551 -6T489 1T442 28T401 82T358 172T302 305H238L188 50L274 27L269 0H-27L-21 28ZM245 337Q358 341 413 387T469 504Q469 532 459 556T429 599T378 627T304 637L245 337Z" />
<glyph unicode="&#x159;" glyph-name="rcaron" horiz-adv-x="423" d="M457 763L325 563H265L213 763H245L311 648L425 763H457ZM115 409Q99 419 76 420T29 416L31 432Q57 458 93 477T168 497Q186 497 200 491T223 471T232 436T224 387L169 222H180Q216 300 245
353T298 438T345 484T391 498Q419 498 434 483T449 444Q449 423 440 405T418 372T388 348T357 332H335Q349 359 349 377T336 395Q322 395 299 367T249 294T197 197T155 92L127 10L18 -15L4 0L115 409Z" />
<glyph unicode="&#x15a;" glyph-name="Sacute" horiz-adv-x="545" d="M78 237L106 60Q129 41 156 30T218 19Q247 19 272 28T315 55T344 95T355 145Q355 164 351 180T336 212T307 242T262 276L219 304Q187 325 166 343T132 382T114 424T108 474Q108 514 127 552T182
618T267 664T376 682Q423 682 465 670T540 643L497 457H472L452 613Q430 628 407 637T354 646Q325 646 302 637T263 612T237 575T228 530Q228 493 245 467T309 411L361 378Q392 358 415 340T455 302T478 260T486 209Q486 155 460 113T394 42T304 -3T206 -19Q175
-19 147 -14T93 -2T48 15T15 31L51 237H78ZM543 871V859L385 728H343L425 871H543Z" />
<glyph unicode="&#x15b;" glyph-name="sacute" horiz-adv-x="355" d="M422 763V755L269 563H240L313 763H422ZM308 151Q308 122 291 93T246 39T181 0T105 -16Q78 -16 56 -8T18 13T-6 43T-15 78Q-15 98 -6 116T19 151H21Q59 100 97 67T173 34Q190 34 203 46T216
75Q216 94 206 111T177 149L110 224Q93 242 83 256T67 283T59 305T57 328Q58 361 77 392T126 446T191 484T259 499Q302 499 330 476T358 421Q357 400 349 384T325 350H323Q291 389 256 416T188 443Q171 443 159 432T146 404Q146 387 155 372T186 332L250 260Q284
222 296 199T308 151Z" />
<glyph unicode="&#x15c;" glyph-name="Scircumflex" horiz-adv-x="545" d="M217 728L359 871H444L523 728H482L389 802L262 728H217ZM78 237L106 60Q129 41 156 30T218 19Q247 19 272 28T315 55T344 95T355 145Q355 164 351 180T336 212T307 242T262 276L219 304Q187
325 166 343T132 382T114 424T108 474Q108 514 127 552T182 618T267 664T376 682Q423 682 465 670T540 643L497 457H472L452 613Q430 628 407 637T354 646Q325 646 302 637T263 612T237 575T228 530Q228 493 245 467T309 411L361 378Q392 358 415 340T455 302T478
260T486 209Q486 155 460 113T394 42T304 -3T206 -19Q175 -19 147 -14T93 -2T48 15T15 31L51 237H78Z" />
<glyph unicode="&#x15d;" glyph-name="scircumflex" horiz-adv-x="355" d="M134 563L266 763H326L378 563H345L280 679L167 563H134ZM308 151Q308 122 291 93T246 39T181 0T105 -16Q78 -16 56 -8T18 13T-6 43T-15 78Q-15 98 -6 116T19 151H21Q59 100 97 67T173
34Q190 34 203 46T216 75Q216 94 206 111T177 149L110 224Q93 242 83 256T67 283T59 305T57 328Q58 361 77 392T126 446T191 484T259 499Q302 499 330 476T358 421Q357 400 349 384T325 350H323Q291 389 256 416T188 443Q171 443 159 432T146 404Q146 387 155 372T186
332L250 260Q284 222 296 199T308 151Z" />
<glyph unicode="&#x15e;" glyph-name="Scedilla" horiz-adv-x="545" d="M64 -231Q84 -225 103 -218T138 -200T162 -178T172 -149Q172 -126 158 -116T129 -100L186 -18Q130 -15 85 1T15 31L51 237H78L106 60Q129 41 156 30T218 19Q247 19 272 28T315 55T344 95T355
145Q355 164 351 180T336 212T307 242T262 276L219 304Q187 325 166 343T132 382T114 424T108 474Q108 514 127 552T182 618T267 664T376 682Q423 682 465 670T540 643L497 457H472L452 613Q430 628 407 637T354 646Q325 646 302 637T263 612T237 575T228 530Q228
493 245 467T309 411L361 378Q392 358 415 340T455 302T478 260T486 209Q486 157 462 116T398 45T311 -1T217 -19L194 -53Q229 -62 247 -79T266 -122Q266 -152 249 -173T204 -210T140 -235T67 -251L64 -231Z" />
<glyph unicode="&#x15f;" glyph-name="scedilla" horiz-adv-x="355" d="M-38 -231Q-18 -225 1 -218T36 -200T60 -178T70 -149Q70 -126 56 -116T27 -100L87 -15Q64 -12 45 -4T13 18T-8 46T-15 78Q-15 98 -6 116T19 151H21Q59 100 97 67T173 34Q190 34 203 46T216
75Q216 94 206 111T177 149L110 224Q93 242 83 256T67 283T59 305T57 328Q58 361 77 392T126 446T191 484T259 499Q302 499 330 476T358 421Q357 400 349 384T325 350H323Q291 389 256 416T188 443Q171 443 159 432T146 404Q146 387 155 372T186 332L250 260Q284
222 296 199T308 151Q308 124 292 96T250 44T189 4T117 -15L92 -53Q127 -62 145 -79T164 -122Q164 -152 147 -173T102 -210T38 -235T-35 -251L-38 -231Z" />
<glyph unicode="&#x160;" glyph-name="Scaron" horiz-adv-x="545" d="M552 871L410 728H325L246 871H287L379 797L507 871H552ZM78 237L106 60Q129 41 156 30T218 19Q247 19 272 28T315 55T344 95T355 145Q355 164 351 180T336 212T307 242T262 276L219 304Q187
325 166 343T132 382T114 424T108 474Q108 514 127 552T182 618T267 664T376 682Q423 682 465 670T540 643L497 457H472L452 613Q430 628 407 637T354 646Q325 646 302 637T263 612T237 575T228 530Q228 493 245 467T309 411L361 378Q392 358 415 340T455 302T478
260T486 209Q486 155 460 113T394 42T304 -3T206 -19Q175 -19 147 -14T93 -2T48 15T15 31L51 237H78Z" />
<glyph unicode="&#x161;" glyph-name="scaron" horiz-adv-x="355" d="M411 763L279 563H219L167 763H199L265 648L379 763H411ZM308 151Q308 122 291 93T246 39T181 0T105 -16Q78 -16 56 -8T18 13T-6 43T-15 78Q-15 98 -6 116T19 151H21Q59 100 97 67T173 34Q190
34 203 46T216 75Q216 94 206 111T177 149L110 224Q93 242 83 256T67 283T59 305T57 328Q58 361 77 392T126 446T191 484T259 499Q302 499 330 476T358 421Q357 400 349 384T325 350H323Q291 389 256 416T188 443Q171 443 159 432T146 404Q146 387 155 372T186
332L250 260Q284 222 296 199T308 151Z" />
<glyph unicode="&#x162;" glyph-name="Tcommaaccent" horiz-adv-x="669" d="M131 -234Q185 -214 207 -196T229 -154Q229 -137 215 -125T178 -109V-105Q183 -82 202 -67T252 -52Q286 -52 306 -73T327 -124Q327 -173 278 -204T139 -257L131 -234ZM624 664L702 669L656
472H629L609 625H469L354 49L432 27L427 0H129L134 28L219 49L334 625H198L116 472H88L123 669L199 664H624Z" />
<glyph unicode="&#x163;" glyph-name="tcommaaccent" horiz-adv-x="354" d="M-55 -234Q-1 -214 21 -196T43 -154Q43 -137 29 -125T-8 -109V-105Q-3 -82 16 -67T66 -52Q100 -52 120 -73T141 -124Q141 -173 92 -204T-47 -257L-55 -234ZM35 471L138 487L212 621H280L250
483H380L372 437H242L154 87H158Q176 96 196 113T236 150T271 190T299 226L323 211Q301 174 274 135T214 63T147 9T76 -12Q50 -12 35 9T28 65L121 437H31L35 471Z" />
<glyph unicode="&#x164;" glyph-name="Tcaron" horiz-adv-x="669" d="M612 871L470 728H385L306 871H347L439 797L567 871H612ZM624 664L702 669L656 472H629L609 625H469L354 49L432 27L427 0H129L134 28L219 49L334 625H198L116 472H88L123 669L199 664H624Z" />
<glyph unicode="&#x165;" glyph-name="tcaron" horiz-adv-x="354" d="M326 532L381 735H482L481 728L349 532H326ZM35 471L138 487L212 621H280L250 483H380L372 437H242L154 87H158Q176 96 196 113T236 150T271 190T299 226L323 211Q301 174 274 135T214 63T147
9T76 -12Q50 -12 35 9T28 65L121 437H31L35 471Z" />
<glyph unicode="&#x166;" glyph-name="Tbar" horiz-adv-x="669" d="M125 380H285L333 623H198L116 472H88L123 669L199 664H624L702 669L656 472H629L609 623H468L420 380H588L580 340H412L354 49L432 27L427 0H129L134 28L219 49L277 340H117L125 380Z" />
<glyph unicode="&#x167;" glyph-name="tbar" horiz-adv-x="354" d="M40 471L143 487L217 621H285L255 483H385L377 437H247L224 348H360L353 306H214L159 87H163Q181 96 201 113T241 150T276 190T304 226L328 211Q306 174 279 135T219 63T152 9T81 -12Q55 -12
40 9T33 65L93 306H21L28 348H103L126 437H36L40 471Z" />
<glyph unicode="&#x168;" glyph-name="Utilde" horiz-adv-x="722" d="M330 -22Q265 -22 215 -5T135 50T94 146T101 288L166 614L97 637L101 664H390L384 636L301 614L230 255Q220 204 225 165T249 100T298 60T367 46Q405 46 439 58T500 97T548 168T580 277L639
611L555 635L559 664H776L771 635L693 613L626 265Q614 203 592 150T533 59T447 0T330 -22ZM321 755L328 770Q346 808 364 830T404 862T449 869T504 856L537 844Q558 836 575 833T606 833T634 848T663 883L680 875L671 856Q652 815 634 792T596 759T551 751T495
765L461 777Q436 786 418 790T387 791T362 778T339 747L321 755Z" />
<glyph unicode="&#x169;" glyph-name="utilde" horiz-adv-x="544" d="M111 408Q100 416 75 418T26 415L28 431Q40 443 55 454T89 475T127 491T169 497Q205 497 221 469T221 379L152 109Q148 93 152 88T163 82Q183 82 213 113T274 191T332 294T373 400L393 476L504
494L514 482L413 92H417Q439 108 462 135T505 190L527 180Q507 139 482 104T431 44T378 3T328 -12Q301 -12 288 8T290 79L341 245H336Q315 208 289 163T232 79T164 14T84 -13Q66 -13 52 -7T30 14T22 51T30 108L111 408ZM160 589L167 605Q184 645 203 667T244 699T291
705T344 690L377 676Q396 668 412 665T442 664T471 681T501 718L519 709L510 690Q490 648 471 624T430 591T385 585T332 601L299 615Q274 625 257 628T227 628T202 613T178 581L160 589Z" />
<glyph unicode="&#x16a;" glyph-name="Umacron" horiz-adv-x="722" d="M330 -22Q265 -22 215 -5T135 50T94 146T101 288L166 614L97 637L101 664H390L384 636L301 614L230 255Q220 204 225 165T249 100T298 60T367 46Q405 46 439 58T500 97T548 168T580 277L639
611L555 635L559 664H776L771 635L693 613L626 265Q614 203 592 150T533 59T447 0T330 -22ZM353 833H644L630 767H339L353 833Z" />
<glyph unicode="&#x16b;" glyph-name="umacron" horiz-adv-x="544" d="M212 693H485L472 627H199L212 693ZM111 408Q100 416 75 418T26 415L28 431Q40 443 55 454T89 475T127 491T169 497Q205 497 221 469T221 379L152 109Q148 93 152 88T163 82Q183 82 213 113T274
191T332 294T373 400L393 476L504 494L514 482L413 92H417Q439 108 462 135T505 190L527 180Q507 139 482 104T431 44T378 3T328 -12Q301 -12 288 8T290 79L341 245H336Q315 208 289 163T232 79T164 14T84 -13Q66 -13 52 -7T30 14T22 51T30 108L111 408Z" />
<glyph unicode="&#x16c;" glyph-name="Ubreve" horiz-adv-x="722" d="M330 -22Q265 -22 215 -5T135 50T94 146T101 288L166 614L97 637L101 664H390L384 636L301 614L230 255Q220 204 225 165T249 100T298 60T367 46Q405 46 439 58T500 97T548 168T580 277L639
611L555 635L559 664H776L771 635L693 613L626 265Q614 203 592 150T533 59T447 0T330 -22ZM476 724Q443 724 420 735T383 765T363 810T357 865H386Q398 833 419 814T485 794Q527 794 553 813T599 865H625Q620 837 609 812T580 767T536 736T476 724Z" />
<glyph unicode="&#x16d;" glyph-name="ubreve" horiz-adv-x="544" d="M111 408Q100 416 75 418T26 415L28 431Q40 443 55 454T89 475T127 491T169 497Q205 497 221 469T221 379L152 109Q148 93 152 88T163 82Q183 82 213 113T274 191T332 294T373 400L393 476L504
494L514 482L413 92H417Q439 108 462 135T505 190L527 180Q507 139 482 104T431 44T378 3T328 -12Q301 -12 288 8T290 79L341 245H336Q315 208 289 163T232 79T164 14T84 -13Q66 -13 52 -7T30 14T22 51T30 108L111 408ZM333 572Q276 572 249 615T229 746H253Q258
691 281 668T341 645Q381 645 408 671T456 746H479Q473 708 462 676T432 621T389 585T333 572Z" />
<glyph unicode="&#x16e;" glyph-name="Uring" horiz-adv-x="722" d="M330 -22Q265 -22 215 -5T135 50T94 146T101 288L166 614L97 637L101 664H390L384 636L301 614L230 255Q220 204 225 165T249 100T298 60T367 46Q405 46 439 58T500 97T548 168T580 277L639
611L555 635L559 664H776L771 635L693 613L626 265Q614 203 592 150T533 59T447 0T330 -22ZM385 818Q385 861 414 890T489 919Q534 919 563 891T593 819Q593 798 585 780T563 748T530 726T488 718Q443 718 414 747T385 818ZM423 819Q423 790 442 771T489 752Q516
752 535 770T554 818Q554 848 535 867T488 886Q461 886 442 868T423 819Z" />
<glyph unicode="&#x16f;" glyph-name="uring" horiz-adv-x="544" d="M233 672Q233 693 241 711T263 743T296 765T337 773Q382 773 411 745T441 673Q441 652 433 634T411 602T378 580T336 572Q291 572 262 600T233 672ZM271 673Q271 643 290 624T337 605Q364 605
383 624T402 672Q402 701 383 720T336 740Q309 740 290 721T271 673ZM111 408Q100 416 75 418T26 415L28 431Q40 443 55 454T89 475T127 491T169 497Q205 497 221 469T221 379L152 109Q148 93 152 88T163 82Q183 82 213 113T274 191T332 294T373 400L393 476L504
494L514 482L413 92H417Q439 108 462 135T505 190L527 180Q507 139 482 104T431 44T378 3T328 -12Q301 -12 288 8T290 79L341 245H336Q315 208 289 163T232 79T164 14T84 -13Q66 -13 52 -7T30 14T22 51T30 108L111 408Z" />
<glyph unicode="&#x170;" glyph-name="Uhungarumlaut" horiz-adv-x="722" d="M693 860L567 728H525L591 871H693V860ZM526 860L400 728H359L424 871H526V860ZM330 -22Q265 -22 215 -5T135 50T94 146T101 288L166 614L97 637L101 664H390L384 636L301 614L230 255Q220
204 225 165T249 100T298 60T367 46Q405 46 439 58T500 97T548 168T580 277L639 611L555 635L559 664H776L771 635L693 613L626 265Q614 203 592 150T533 59T447 0T330 -22Z" />
<glyph unicode="&#x171;" glyph-name="uhungarumlaut" horiz-adv-x="544" d="M111 408Q100 416 75 418T26 415L28 431Q40 443 55 454T89 475T127 491T169 497Q205 497 221 469T221 379L152 109Q148 93 152 88T163 82Q183 82 213 113T274 191T332 294T373 400L393
476L504 494L514 482L413 92H417Q439 108 462 135T505 190L527 180Q507 139 482 104T431 44T378 3T328 -12Q301 -12 288 8T290 79L341 245H336Q315 208 289 163T232 79T164 14T84 -13Q66 -13 52 -7T30 14T22 51T30 108L111 408ZM391 763V754L258 563H230L293 763H391ZM543
763V754L411 563H383L446 763H543Z" />
<glyph unicode="&#x172;" glyph-name="Uogonek" horiz-adv-x="722" d="M183 -174Q183 -154 190 -137T214 -102T256 -65T318 -22Q256 -21 209 -3T132 53T94 149T101 288L166 614L97 637L101 664H390L384 636L301 614L230 255Q220 204 225 165T249 100T298 60T367
46Q405 46 439 58T500 97T548 168T580 277L639 611L555 635L559 664H776L771 635L693 613L626 265Q614 206 594 156T541 68T463 7T358 -21Q333 -44 317 -61T291 -90T277 -113T273 -135Q273 -150 283 -161T314 -172Q333 -172 350 -163T394 -127L410 -140Q382 -185
347 -217T266 -249Q225 -249 204 -226T183 -174Z" />
<glyph unicode="&#x173;" glyph-name="uogonek" horiz-adv-x="544" d="M340 -11Q337 -12 335 -12H328Q301 -12 288 8T290 79L341 245H336Q315 208 289 163T232 79T164 14T84 -13Q66 -13 52 -7T30 14T22 51T30 108L111 408Q100 416 75 418T26 415L28 431Q40 443
55 454T89 475T127 491T169 497Q205 497 221 469T221 379L152 109Q148 93 152 88T163 82Q183 82 213 113T274 191T332 294T373 400L393 476L504 494L514 482L413 92H417Q439 108 462 135T505 190L527 180Q507 139 484 106T426 38Q381 -7 354 -35T312 -82T292 -112T287
-136Q287 -150 297 -161T328 -172Q347 -172 364 -163T408 -127L424 -140Q396 -185 361 -217T280 -249Q238 -249 218 -226T197 -174Q197 -152 206 -133T234 -96T279 -58T341 -14L340 -11V-11Z" />
<glyph unicode="&#x174;" glyph-name="Wcircumflex" horiz-adv-x="953" d="M423 728L565 871H650L729 728H688L595 802L468 728H423ZM515 430L273 -9H212L142 614L85 636L90 664H361L355 636L278 612L322 149L506 499L491 614L440 637L445 664H711L706 636L625
613L680 154L898 614L818 637L823 664H1013L1007 636L951 617L634 -9H572L515 430Z" />
<glyph unicode="&#x175;" glyph-name="wcircumflex" horiz-adv-x="695" d="M275 563L407 763H467L519 563H486L421 679L308 563H275ZM449 94H452Q494 146 523 187T571 261T598 318T606 364Q606 393 591 407T550 421Q542 421 531 420T509 415L512 432Q541 463 569
480T626 498Q663 498 681 475T699 415Q699 382 682 347T635 272T569 190T491 100L393 -14H384L337 5L338 211H335Q322 195 309 179T281 144T248 102T207 49L158 -14H147L99 5L93 404Q74 420 38 420Q22 420 5 415L8 431Q37 461 71 479T137 497Q207 497 208 404L211
100H214Q244 137 276 180T334 260L332 407Q324 412 313 416T286 420Q270 420 252 415L254 431Q283 462 316 479T381 497Q394 497 406 493T428 478T443 448T449 399V94Z" />
<glyph unicode="&#x176;" glyph-name="Ycircumflex" horiz-adv-x="662" d="M401 263L359 48L427 26L422 0H143L149 27L224 48L264 250L146 614L87 637L93 664H381L375 636L290 614L383 297L598 612L510 637L516 664H716L711 636L653 616L401 263ZM298 728L440
871H525L604 728H563L470 802L343 728H298Z" />
<glyph unicode="&#x177;" glyph-name="ycircumflex" horiz-adv-x="486" d="M12 271Q18 380 55 437T152 495Q177 495 198 481T236 435T263 355T274 239Q275 175 267 110T241 -6H248Q275 33 302 74T351 158T386 246T398 339Q398 374 385 410T349 476Q363 486 381
492T416 498Q438 498 456 482T476 417Q477 355 450 282T378 134T276 -9T158 -131T40 -217T-62 -249Q-94 -249 -116 -231T-139 -177Q-140 -150 -122 -129T-72 -108Q-43 -108 -25 -130T6 -195H10Q52 -176 80 -134T126 -39T151 74T159 186Q159 292 142 347T101 402Q81
402 66 369T36 271H12ZM172 563L304 763H364L416 563H383L318 679L205 563H172Z" />
<glyph unicode="&#x178;" glyph-name="Ydieresis" horiz-adv-x="662" d="M401 263L359 48L427 26L422 0H143L149 27L224 48L264 250L146 614L87 637L93 664H381L375 636L290 614L383 297L598 612L510 637L516 664H716L711 636L653 616L401 263ZM335 741Q309 741
291 759T272 803Q272 829 290 848T335 867Q361 867 379 848T398 803Q398 777 380 759T335 741ZM561 741Q535 741 517 759T499 803Q499 829 517 848T561 867Q587 867 606 848T625 803Q625 777 606 759T561 741Z" />
<glyph unicode="&#x179;" glyph-name="Zacute" horiz-adv-x="640" d="M560 871V859L402 728H360L442 871H560ZM-1 28L462 625H203L111 453H83L117 667L203 664H644V654L166 40H450L574 216H602L534 -3L447 0H-7L-1 28Z" />
<glyph unicode="&#x17a;" glyph-name="zacute" horiz-adv-x="475" d="M479 763V755L326 563H297L370 763H479ZM496 463L159 147L249 111Q285 96 310 94T356 101T394 131T433 182L456 171Q411 72 368 27T272 -18Q255 -18 235 -12T179 11L69 62L9 -17L-29 18L317
343L196 389Q154 405 130 408T101 394Q96 381 110 365T165 329Q137 268 87 268Q64 268 49 283T34 324Q34 349 51 380T96 437T156 482T221 500Q233 500 244 499T267 493T296 482T337 463L406 430L456 498L496 463Z" />
<glyph unicode="&#x17b;" glyph-name="Zdotaccent" horiz-adv-x="640" d="M-1 28L462 625H203L111 453H83L117 667L203 664H644V654L166 40H450L574 216H602L534 -3L447 0H-7L-1 28ZM334 806Q334 834 354 854T402 874Q430 874 449 854T469 806Q469 779 450 759T402
739Q374 739 354 759T334 806Z" />
<glyph unicode="&#x17c;" glyph-name="zdotaccent" horiz-adv-x="475" d="M496 463L159 147L249 111Q285 96 310 94T356 101T394 131T433 182L456 171Q411 72 368 27T272 -18Q255 -18 235 -12T179 11L69 62L9 -17L-29 18L317 343L196 389Q154 405 130 408T101
394Q96 381 110 365T165 329Q137 268 87 268Q64 268 49 283T34 324Q34 349 51 380T96 437T156 482T221 500Q233 500 244 499T267 493T296 482T337 463L406 430L456 498L496 463ZM270 667Q270 696 289 715T338 735Q366 735 385 716T405 667Q405 639 386 620T338
600Q309 600 290 619T270 667Z" />
<glyph unicode="&#x17d;" glyph-name="Zcaron" horiz-adv-x="640" d="M578 871L436 728H351L272 871H313L405 797L533 871H578ZM-1 28L462 625H203L111 453H83L117 667L203 664H644V654L166 40H450L574 216H602L534 -3L447 0H-7L-1 28Z" />
<glyph unicode="&#x17e;" glyph-name="zcaron" horiz-adv-x="475" d="M472 763L340 563H280L228 763H260L326 648L440 763H472ZM496 463L159 147L249 111Q285 96 310 94T356 101T394 131T433 182L456 171Q411 72 368 27T272 -18Q255 -18 235 -12T179 11L69 62L9
-17L-29 18L317 343L196 389Q154 405 130 408T101 394Q96 381 110 365T165 329Q137 268 87 268Q64 268 49 283T34 324Q34 349 51 380T96 437T156 482T221 500Q233 500 244 499T267 493T296 482T337 463L406 430L456 498L496 463Z" />
<glyph unicode="&#x192;" glyph-name="florin" horiz-adv-x="492" d="M67 326H169Q187 387 220 438T294 526T378 583T459 604Q499 604 517 587T535 544Q535 529 529 516T514 493T493 475T471 465Q463 481 455 496T437 524T416 544T393 552Q382 552 371 544T347
515T323 455T299 356L293 326H431L423 285H284L237 54Q222 -19 192 -76T123 -172T43 -231T-35 -251Q-66 -251 -90 -233T-115 -188Q-115 -159 -97 -141T-52 -114Q-35 -157 -15 -179T24 -202Q64 -202 91 -66L159 285H59L67 326Z" />
<glyph unicode="&#x1fa;" glyph-name="Aringacute" horiz-adv-x="702" d="M-37 28L30 47L393 668L430 675L478 683L572 50L636 27L630 0H348L353 28L437 49L413 224H187L91 51L189 27L184 0H-43L-37 28ZM215 275H406L369 549H368L215 275ZM658 1083V1071L500 940H458L540
1083H658ZM351 811Q351 854 380 883T455 912Q500 912 529 884T559 812Q559 791 551 773T529 741T496 719T454 711Q409 711 380 740T351 811ZM389 812Q389 783 408 764T455 745Q482 745 501 763T520 811Q520 841 501 860T454 879Q427 879 408 861T389 812Z" />
<glyph unicode="&#x1fb;" glyph-name="aringacute" horiz-adv-x="544" d="M522 517L406 91H410Q433 107 456 134T499 190L523 180Q503 139 479 104T427 44T373 3T323 -12Q305 -12 295 -4T280 17T276 46T283 78L328 208H321Q300 174 274 135T218 63T156 7T91 -16Q55
-16 30 8T5 90Q5 136 20 183T60 274T120 358T191 425T268 471T345 488Q383 488 413 472L436 517H522ZM161 77Q180 77 208 105T266 177T323 273T365 372L381 421Q370 435 356 444T325 453Q304 453 282 438T240 398T201 340T168 270T146 196T136 124Q135 95 142 86T161
77ZM282 636Q282 657 290 675T312 707T345 729T386 737Q431 737 460 709T490 637Q490 616 482 598T460 566T427 544T385 536Q340 536 311 564T282 636ZM320 637Q320 607 339 588T386 569Q413 569 432 588T451 636Q451 665 432 684T385 704Q358 704 339 685T320
637ZM590 910V898L432 767H390L472 910H590Z" />
<glyph unicode="&#x1fc;" glyph-name="AEacute" horiz-adv-x="956" d="M830 871V859L672 728H630L712 871H830ZM603 324L549 54Q557 48 571 43T610 38H754L875 214H905L841 0H334L340 28L412 49L466 323H291L94 51L191 27L186 0H-40L-34 27L26 46L457 613L375
637L380 664H883L955 666L925 473H897L860 627H662L610 364H723L772 455H800L755 229H723L714 324H603ZM516 622L323 365H475L526 622H516Z" />
<glyph unicode="&#x1fd;" glyph-name="aeacute" horiz-adv-x="657" d="M593 763V755L440 563H411L484 763H593ZM375 -14Q327 -14 298 9T257 71H255Q236 51 219 35T183 8T145 -8T99 -14Q80 -14 62 -8T29 10T5 42T-4 89Q-2 140 36 170T150 217L268 245L290 327Q291
351 288 373T276 412T252 439T213 449Q187 449 169 433L155 325Q149 323 137 320T111 316Q90 316 76 326T63 359Q63 382 82 406T132 450T201 483T278 498Q337 498 360 468T387 395H390Q427 440 476 469T579 498Q619 498 643 478T666 423Q666 386 642 357T577 305T486
265T379 235Q377 224 376 214T375 192Q375 157 381 134T396 97T419 77T447 71Q468 71 488 80T527 105T561 138T589 172L610 160Q598 133 575 102T521 46T453 3T375 -14ZM260 214L201 197Q153 183 134 162T114 112Q112 88 125 70T164 52Q187 52 209 67T250 102Q244
151 259 210L260 214ZM530 452Q512 452 492 437T451 397T413 337T386 264Q471 296 514 335T559 418Q559 452 530 452Z" />
<glyph unicode="&#x1fe;" glyph-name="Oslashacute" horiz-adv-x="772" d="M70 -40L146 56Q104 95 79 152T54 286Q54 357 82 428T162 555T288 647T455 682Q537 682 607 638L660 706H704L635 618Q683 580 712 519T741 375Q741 305 713 235T633 108T505 16T336 -20Q292
-20 250 -6T172 34L114 -40H70ZM596 445Q596 499 579 548L222 97Q239 60 267 37T339 13Q400 13 448 52T529 154T579 294T596 445ZM199 225Q199 202 201 180T209 136L562 582Q545 611 518 629T454 648Q395 648 348 609T268 509T217 373T199 225ZM633 871V859L475
728H433L515 871H633Z" />
<glyph unicode="&#x1ff;" glyph-name="oslashacute" horiz-adv-x="508" d="M12 -50L74 32Q48 60 34 99T22 185Q25 239 45 294T104 394T196 467T320 496Q344 496 365 490T405 473L453 537H492L429 454Q459 426 474 386T488 303Q485 248 465 192T406 90T314 15T189
-14Q162 -14 139 -7T97 13L50 -50H12ZM146 78Q149 49 159 32T193 14Q224 14 254 48T308 134T347 248T363 366L146 78ZM309 468Q288 468 269 452T231 408T198 346T172 272T154 197T146 128L360 413Q355 438 343 453T309 468ZM494 763V755L341 563H312L385 763H494Z"
/>
<glyph unicode="&#x218;" glyph-name="Scommaaccent" horiz-adv-x="545" d="M334 -234Q388 -214 410 -196T432 -154Q432 -137 418 -125T381 -109V-105Q386 -82 405 -67T455 -52Q489 -52 509 -73T530 -124Q530 -173 481 -204T342 -257L334 -234ZM78 237L106 60Q129
41 156 30T218 19Q247 19 272 28T315 55T344 95T355 145Q355 164 351 180T336 212T307 242T262 276L219 304Q187 325 166 343T132 382T114 424T108 474Q108 514 127 552T182 618T267 664T376 682Q423 682 465 670T540 643L497 457H472L452 613Q430 628 407 637T354
646Q325 646 302 637T263 612T237 575T228 530Q228 493 245 467T309 411L361 378Q392 358 415 340T455 302T478 260T486 209Q486 155 460 113T394 42T304 -3T206 -19Q175 -19 147 -14T93 -2T48 15T15 31L51 237H78Z" />
<glyph unicode="&#x219;" glyph-name="scommaaccent" horiz-adv-x="355" d="M218 -234Q272 -214 294 -196T316 -154Q316 -137 302 -125T265 -109V-105Q270 -82 289 -67T339 -52Q373 -52 393 -73T414 -124Q414 -173 365 -204T226 -257L218 -234ZM308 151Q308 122
291 93T246 39T181 0T105 -16Q78 -16 56 -8T18 13T-6 43T-15 78Q-15 98 -6 116T19 151H21Q59 100 97 67T173 34Q190 34 203 46T216 75Q216 94 206 111T177 149L110 224Q93 242 83 256T67 283T59 305T57 328Q58 361 77 392T126 446T191 484T259 499Q302 499 330
476T358 421Q357 400 349 384T325 350H323Q291 389 256 416T188 443Q171 443 159 432T146 404Q146 387 155 372T186 332L250 260Q284 222 296 199T308 151Z" />
<glyph unicode="&#x21a;" glyph-name="uni021A" horiz-adv-x="669" d="M131 -234Q185 -214 207 -196T229 -154Q229 -137 215 -125T178 -109V-105Q183 -82 202 -67T252 -52Q286 -52 306 -73T327 -124Q327 -173 278 -204T139 -257L131 -234ZM624 664L702 669L656
472H629L609 625H469L354 49L432 27L427 0H129L134 28L219 49L334 625H198L116 472H88L123 669L199 664H624Z" />
<glyph unicode="&#x21b;" glyph-name="uni021B" horiz-adv-x="354" d="M-55 -234Q-1 -214 21 -196T43 -154Q43 -137 29 -125T-8 -109V-105Q-3 -82 16 -67T66 -52Q100 -52 120 -73T141 -124Q141 -173 92 -204T-47 -257L-55 -234ZM35 471L138 487L212 621H280L250
483H380L372 437H242L154 87H158Q176 96 196 113T236 150T271 190T299 226L323 211Q301 174 274 135T214 63T147 9T76 -12Q50 -12 35 9T28 65L121 437H31L35 471Z" />
<glyph unicode="&#x237;" glyph-name="uni0237" horiz-adv-x="266" d="M119 406Q105 416 80 418T31 415L32 431Q57 454 93 475T174 497Q190 497 204 491T227 472T238 436T232 380L150 44Q135 -17 108 -71T44 -165T-34 -228T-122 -252Q-135 -252 -149 -248T-175
-235T-195 -215T-203 -188Q-204 -159 -185 -141T-139 -114Q-100 -202 -65 -202Q-52 -202 -42 -187T-21 -143T-2 -75T20 11L119 406Z" />
<glyph unicode="&#x2c6;" glyph-name="circumflex" horiz-adv-x="400" d="M104 563L236 763H296L348 563H315L250 679L137 563H104Z" />
<glyph unicode="&#x2c7;" glyph-name="caron" horiz-adv-x="400" d="M370 763L238 563H178L126 763H158L224 648L338 763H370Z" />
<glyph unicode="&#x2d8;" glyph-name="breve" horiz-adv-x="400" d="M216 572Q159 572 132 615T112 746H136Q141 691 164 668T224 645Q264 645 291 671T339 746H362Q356 708 345 676T315 621T272 585T216 572Z" />
<glyph unicode="&#x2d9;" glyph-name="dotaccent" horiz-adv-x="400" d="M165 667Q165 696 184 715T233 735Q261 735 280 716T300 667Q300 639 281 620T233 600Q204 600 185 619T165 667Z" />
<glyph unicode="&#x2da;" glyph-name="ring" horiz-adv-x="307" d="M126 672Q126 693 134 711T156 743T189 765T230 773Q275 773 304 745T334 673Q334 652 326 634T304 602T271 580T229 572Q184 572 155 600T126 672ZM164 673Q164 643 183 624T230 605Q257 605
276 624T295 672Q295 701 276 720T229 740Q202 740 183 721T164 673Z" />
<glyph unicode="&#x2db;" glyph-name="ogonek" horiz-adv-x="451" d="M341 13Q304 -20 281 -42T244 -81T225 -110T219 -135Q219 -150 229 -161T260 -172Q279 -172 296 -163T340 -127L356 -140Q328 -185 293 -217T212 -249Q171 -249 150 -226T129 -174Q129 -151
139 -131T172 -90T231 -44T319 13H341Z" />
<glyph unicode="&#x2dc;" glyph-name="tilde" horiz-adv-x="400" d="M55 589L62 605Q79 645 98 667T139 699T186 705T239 690L272 676Q291 668 307 665T337 664T366 681T396 718L414 709L405 690Q385 648 366 624T325 591T280 585T227 601L194 615Q169 625 152
628T122 628T97 613T73 581L55 589Z" />
<glyph unicode="&#x2dd;" glyph-name="hungarumlaut" horiz-adv-x="400" d="M259 763V754L126 563H98L161 763H259ZM411 763V754L279 563H251L314 763H411Z" />
</font>
</defs>
</svg>
